&title=Bad Apple!! feat.nomico (Camellia's "Bad Psy" Remix)
&artist=かめりあ
&first=0
&des=yksetuna
&lv_5=13+
&inote_5=(160){1},,
{2}8-5[8:9]*-2v3-5[2:2],,,6h[2:1],8-3[2:1]*-5[2:1],,2-6[2:1],7,
{8}7,5,6,4,5-1[8:1],,3-8[8:1],,6-1[8:1],,4qq8[8:3],,7,7,6,6,
{8}5,1,6,2,7,,3>7[4:1],3,{4}7<3[4:1],3>7[4:1],7<3[4:1],3,
{8}6,1,7,2,8-4[8:1],,2-5[8:1],,7-4[8:1],,1pp1[8:3]*qq1[8:3],,1x,,,,
{8}2,8,1,7,8,,6-4-7v8[4:3],6,1,,1,,2,,2,,
{16}2,,,,2,,8/3,,2,4,2,,3/6,,,,{16}C,,,,7/5x,,4,,6,4,6,,5-8[8:1]*-1[8:1]/2,,,,
{16}5,,,,7,,1/6,,7,5,7,,6/3,,,,{16}C,,,,2/4x,,5,,3,5,3,,4-1[8:1]/7,,,,
{4}4/8-5[8:1],8/2-7[8:1],2/6-3[8:1],6/1-4[8:1],1/8-5[8:1],8/2-7[8:1],2/6-3[8:1],6/1,
{8}2,2,3,3,4,4,{16}5-1[8:1],4,5,4,
{4}5b-2[8:1],5-8[8:1]/8-5[8:1],5/8w4b[8:1],8bx,
{16}2/6,,,,1,8,1,8,{32}E2,E3,E4,E5,E6,E7,E8,,{8}5x,5x-7[8:1],{8},1/5,8-4[8:1],,{16}5/8,6,7,8x,4x,3,2,1,
{8}5-2[8:1]*-8[8:1],2x/8x-4[8:1],,,{16}1,1,5x,2,,,3/4-7-5-1b[2:1],,,,,,2-4[8:1],,,,2,,,,5/8,,7,,
{16}6/4,3,2,1,8/4,3,2,1,4,7,4,7,2h[8:1]/6xh[8:1],,,3h[8:1]/7h[8:1],,,4h[8:1]/8h[8:1],,,1/5-2[16:1],,,1/5,8,7,6,5,4,3,2,
{8}1/4-8[8:1],4,7-3[8:1],7,1,,2/4-8[8:1],3/5,4/6-2[8:1],,4v7[8:1]*v1[8:1]/6,,,,8/2,,
{16}7/3,,,,8,1,8,1,{32}E8,E7,E6,E5,E4,E3,E2,,{8}4x,4x-2[8:1],{8},8/4,1-5[8:1],,{16}4/1,3,2,1x,5x,6,7,8,
{8}4-7[8:1]*>1[8:1],7/1v3[8:1],,,{16}8,8,4x,7,,,6/5-1>4-8b[2:1],,,,,,7-5[8:1],,,,7,,,,4/1,,2,,
{16}3/5,6,7,8,1/5,6,7,8,5,2,5,2,7h[8:1]/3xh[8:1],,,6h[8:1]/2h[8:1],,,5h[8:1]/1h[8:1],,,8/4-7[16:1],,,8/4,1,2,3,4,5,6,7,
{12}8x,1x,2x,7x,5x,6x,2,4,3,6,5,8,4,4,4,6,6,6,5/7,5/7,5/7,6-8b[8:1]/4-8[8:1],6/4,6/4,
{2}6b/4bxqq1[2:2],7h[32:1],5,2,
{2}3pp1[2:2],7h[32:1],6,2,
{2}2q4[2:2],6h[32:1],7,3,
{2}1s5[8:13],7h[32:1],6,6b-1[16:1],
{16}4/8,,7,5,,6,4,,1/5,,2,4,,3,5,,{16}6,4,6,4,,7/5,7/5,,3,5,3,5,,2/4,2/4,,
{16}2,,3-8[8:1],7,,7,3,,7,,1-5[8:1],8,,8,1,,{16}7,,6-1[8:1],2,,2,6,,2,,8-4[8:1],1,,1,8,,
{16}1,2,3,4,7,6,5,4,8,1,2,3,8,7,6,5,{16}1,5,1,5,2,6,2,6,3,7,3,7,4,8,4,8,
{32}4,3,2,1,8,7,6,5,4,3,2,1,8,7,6,5,4,3,2,1,8,7,6,5,4,3,2,1,8,7,6,5,{4}4pp5[4:1],5>1[4:1],1x-5-1[8:3],7bx-3b[8:1],
{16}7b,,,,2,4,3,4,2,4,3,4,1b,4bx,3bx,4bx,{16}1,4,3,4,8,4,3,4,8,4,3,4h[16:5],7x-3[8:1],,,,
{16}7bx,,,,2,1,3,4,2,1,3,4,2,1,3,4,{4}2-5[8:1],2/6-1[8:1],6/2-4[8:1],2-6[8:1],
{16}2b,,,,7,5,6,5,7,5,6,5,8b,5bx,6bx,5bx,{16}8,5,6,5,1,5,6,5,1,5,6,5h[16:5],2x-6[8:1],,,,
{16}2bx,,,,7,8,6,5,7,8,6,5,7,8,6,5,{8}7-4[8:1],6,3-8[8:1],2,7-5[8:1],7x,7x-3[8:1],,
{16}7bV51[4:1],,,,,,,,2,3,4,5,1,2,3,4,8,1,2,3,7,4,7,4,6,5,6,5,7-4[8:1]*-3[8:1],,,,
{16}7b,,,,5,6,7,8,3,2,1,8,5,8,6,1,{4}7-2[8:1],7/2-5[8:1],2x/5-8[8:1],5x,
{16}2xV48[4:1],,2,,,,,,7,6,5,4,8,7,6,5,{16}1,8,7,6,2,5,2,5,3,4,3,4,2,,2,,
{16}2h[8:1],,5,3h[8:1],,6,4h[8:1],,7h[8:1],,4,6h[8:1],,3,5h[8:1],,{16}2,4,2,7,5,7,3,1,3,6,8,6,5/1b,,,,
{16}2,,2,1,,1,3,,3,4,,4,2,5,2,,2,7,,7,5,,5,6,,6,5,6,4b,,,,
{16}7,,7,8,,8,6,,6,5,,5,7,4,7,,7,2,,2,4,,4,3,,3,4,3,5b,,,,
{16}2,4,2,5,3,5,2,4,2,5,3,5,2,,2,,
{16}7,5,7,4,6,4,7,5,7,4,6,4,7,,7,,
{16}1b,2,3,4,{24}1b,8,7,6,5,4,{32}1b,2,3,4,5,6,7,8,1/5bx,6x,7x,8x,1x,2x,3x,4x,
{4}5x-8[8:1]/1-4[8:1],5/1,{12}3/7,3/7,3/7,2-6b[8:1]/8-4b[8:1],2/8,2/8,
{32}2b/8b,,B8/Cf/B2/B4/B6,,
&inote_6=(160){1},,
{2}8-5[8:9]*-2v3-5[2:2],,,6h[2:1],8-3[2:1]*-5[2:1],,2-6[2:1],7,
{8}7,5,6,4,5-1[8:1],,3-8[8:1],,6-1[8:1],,4qq8[8:3],,7,7,6,6,
{8}5,1,6,2,7,,3>7[4:1],3,{4}7<3[4:1],3>7[4:1],7<3[4:1],3,
{8}6,1,7,2,8-4[8:1],,2-5[8:1],,7-4[8:1],,1pp1[8:3]*qq1[8:3],,1x,,,,
{8}2,8,1,7,8,,6-4[4:1]-7[4:1]-3[4:1],6,1,,1,,2,,2,,
