&title=THE TIME MACHINE
&artist=Yuta Imai
&first=0.01
&des=えども~ん
&lv_5=13
&inote_5=(155){1},
{4}2h[4:3]/6h[4:3],,,{32},3h[256:1]/7h[256:1],4h[256:1]/8h[256:1],5h[256:1]/1h[256:1],
,,,,
{1}3b>6[4:6]/7b<2[4:6],,8>5[4:6]/4<1[4:6],,1<4[8:11]/5>8[8:11],{4},,,
{16},,1,2,
{8}3h[8:3],,,8h[8:3],,,7h[8:2],,6<3[4:1],,,,4bw8[8:1],,,,
{16}26,,4,,4,,6,,7h[8:1],,8,7,,,2h[8:1],,1,2,,,8h[8:1],,1,8,,,3h[8:1],,5,4,6,,
{16}37,,5,,5,,3,,2h[16:3],,1,1,,,7h[16:3],,8,8,,,3h[16:3],,2,2,,,7h[8:1],,1,6,2,,
{8}16,1,27,2,38,3,41,
{16}3,3,
{8}1,1,48,8,37,7,26,
{16}5,5,
{16}2h[128:1],6,3,7,4,8,5,1,
{32}6h[128:1],7,8,1,2,3,4,5,6,7,8-4[10:1],1,2,3,4,5,
{4}8b,,{16}3h[256:1],5h[256:1],2h[256:1],4h[256:1],2h[256:1],5h[256:1],3h[256:1],,
{16}73,,5,,64,,7,,2pp5[32:13],,,21,,,8^5[11:1],,,8,,,1q5[10:1],,,6,1,,6,,75,,8,,
{16}62,,4,,53,,2,,7qq4[32:13],,,87,,,1^4[11:1],,,1,,,7p3[10:1],,,2,7,,1,,24,,3,,
{16}26,,4,,37,,5,,1pp4[32:13],,,18,,,7^4[11:1],,,7,,,1q5[10:1],,,5,1,,7,,56,,7,,
{16}4h[8:1]/3,,2,1,,,5h[8:1]/6,,7,1,,,2/4h[8:1],,3,1,,,5h[8:1]/7,,6,1-5[11:1],,,
{16}81,,6,6,4,,35,,
{16}2h[256:1],6h[256:1],3h[256:1],5h[256:1],4h[256:1],6h[256:1],2h[256:1],,
{16}8qq4[64:27],,,28,,,1^4[11:1],,,1,,,7-4[8:1],,,4-8[8:1],7,,1,,3,,2,,
{16}47,,6,,34,,2,,1pp5[64:27],,,17,,,8^5[11:1],,,8,,,2-6[8:1],,,6-3[8:1],2,,8,,7,,6,,
{16}54,,6,,71,,2,,7qq3[64:27],,,37,,,2^7[11:1],,,2,,,4-8[8:1],,,8V26[6:1],4,,3,,4,,3,,
{16}2b/6h[8:1],,5,7,,,3h[8:1]/8b,,4,2,,,
{24}5,4,5,{16}3b,7h[8:1],,,6h[8:1]/4h[8:1],,,6h[8:1]/4h[8:1],,,4h[8:1]/2h[8:1],,,2h[8:1]/4h[8:1],,,5h[8:1],,
{8}3h[64:1],4h[64:1],{12}5h[128:1],6h[128:1],7h[128:1],
{16}8b/1b,,27,,2-4[12:1],1,3,1,2,,5,,7-5[12:1],8,6,8,7,,4,,2,1,2,1,
{12}2h[64:1],4h[64:1],3h[64:1],6h[64:1],5h[64:1],7h[64:1],
{16}18,,27,,6-8[12:1],5,7,5,6,,1,,3,4,2,4,3,,18,27,6v3[8:1]/3,,3-5[8:1]/6,,
{4},{32}2,1v4[12:1]*v6[12:1],8,7,{8},1b,
{16},,7-4[10:1],5,6,5,7,,3,,2-5[10:1],1,3,8,2,,6,,7,8,7,8,
{16}6h[8:1]/1,,5h[8:1],7,,,3h[8:1]/8,,4h[8:1],2,,,8h[8:1]/7h[8:1],,,6h[8:1]/4h[8:1],,,
{16}3h[8:1]/1h[8:1],,,8/2h[8:1],,7h[8:1],8h[8:1],,6h[8:1],1h[8:1],,5,2,,
{1}3b>5[4:10]/4q5[4:5],,4^1[2:1],8V24[2:1]/4V68[2:1],
{8}3,3,2h[16:3]/4-6[10:1],,,3,75,,5,6,7h[16:3]/5-3[10:1],,,
{16}6,,24,24,,3,
{16}6h[8:1],,5,,75,,6,5,,3,4,,35,,6,,
{16}2h[8:1],,4,,35,,2,1,,7,8,,82,,7,,
{1}6qq3[8:10]/1h[8:7],{8}3,3,2,2,1bw5[8:1],,,,
{16}8,,5,,8,5,,,57,,,5,6,,64,,
{16}1,,4,,2,4,3,,{4}3bs7[8:1]/5bs1[8:1],,
{16}28,,3h[8:1],,4,2,5,,71,,6h[8:1],,5,7,4,,83,,2h[8:1],,5,1,6,,37,,8h[8:1],,3,1,2,,
{16}7h[128:1],4,6,3,5,2,4,1,
{32}3h[128:1],2,1,8,7,6,5,4,3,2,1s5[8:1],8,7,6,5,4,
{4}1b,,{16}6h[256:1],4h[256:1],7h[256:1],5h[256:1],7h[256:1],4h[256:1],6h[256:1],,
{4}2h[8:3]/6h[8:3],,
{8}4,{64}3,,,,
,,,{12}5,{64},{12}2,5,{16}1,6,1,6,{24}8,7,8,
{32}7,8,7,8,
{24}7,8,7,
{16}8,7,,,18,27,
{4}3b-5[12:1]/6b-1[12:1],3qq4[3:1]/6,5^8[12:1]/3,5-2[12:1],
{8}5-8[12:1]/6,,15,2,{16}3/7qq8[4:1],37,37,,2,,{24}1,2,3,
{8}4bpp2[24:8],,7-1[12:1]/4,,7p4[3:1],,2-5[12:1]/7,,2bpp6[3:1],,7^2[12:1]/2,,7,,
{8}3-1[12:1]/8v5[12:1],38,3b-7[12:1]/8b,,2/3-5[12:1],,3bqq4[4:1]/7b,,35,
{24}5,6<2[24:4],7>3[24:4],{16}8b>4[6:1],,,6h[128:1],,,5,,{16}7b^4[8:1],,,,
{32}4w8[8:1]/7,3,2,1,,,,,{4}4b>5[8:5]*<3[8:5],,,,
{16}3,3,4,2,6,6,5,7,1v4[12:1],8,2,7,
{4}1qq6[3:1]/8,{8}4b>8[8:1]/1,4b,
{8}4bpp8[3:1],,1V35[12:1]/4,,1^6[12:1],,1/2qq3[4:1],,42,
{24}4<3[24:7],5<3[24:6],6<3[24:5],
{8}7V15[24:4],84,,,4b/6b,,
{8}2/7-4[12:1],1-5[12:1],7qq8[4:1]/8,1,7,{24}1,2,3,
{8}4bp8[12:1],,64,5,{16}17,17,,82,{8}82,{24}1,28,3-8[12:1]/7-4[12:1],
{16}4b/6b,,,37,,,6-1[12:1]/2-5[12:1],,,62,,,48,,{24}4/8pp7[24:5],3>7[6:1]/7,2<6[6:1]/6,
{4}1b<5[6:1]/5b,,
{32}4,3,2,1,8,7,6,5,4,3,2,1,8,7,6,5,
{32}8h[32:51]/4b,,,,
3h[128:1],,,,
2h[64:1],,,,
,1h[64:1],,,
,,7h[32:1],,
,,,{64},6h[32:1],
{32},,,,
,{64},5h[32:1],{32},,
,,,{64},4h[16:1],{32}
,,,,
,,,3h[8:1],
,,,,
,,,2v7[8:1]*v4[8:1],
,,,,
,,,,
,,,,
{1},,
