&title=[プロセカ]熱異常
&artist=25時、ナイトコードで。
&first=0
&des=えななん
&lv_5=13
&inote_5=(183){1},
{16}8-5[4:1]*-2[16:3],,,,,,,,,,,,,,,,
{16}5/4^1[4:1],,,,5,,,,5,,,,5,,1,,
{16}5/1-4[4:1],,,,5,,,,5,,,,5,,4,,
{16}5/4-8[4:1],,,,5,,,,5,,,,5,,8,,
{16}5/8q4[4:1],,,,6,,,,7,,,,8,,4,,
{16}1/4^7[4:1],,,,2,,,,3,,,,4,,7,,
{16}5/7-4[4:1],,,,6,,,,7,,,,8,,4,,
{16}1/4p8[4:1],,,,2,,,,3,,,,4,,8,,
{16}5/8-4[4:1],,,,6,,,,7,,,,8,,4,,
{16}1/4-1[4:1],,,,2,,,,3,,,,4,,1,,
{16}5/1^4[4:1],,,,6,,,,7,,,,8,,4,,
{16}1/4<8[4:1],,,,2,,,,3,,,,4,,8,,
{16}5/8>4[4:1],,,,6,,,,7,,,,8,,4,,
{16}1/4q1[4:1],,,,2,,,,3,,,,4,,1,,
{16}5/1q6[4:1],,,,6,,,,7,,,,8,,6,,
{16}1/6q5[4:1],,,,2,,,,3,,,,4h[8:1],,5,,
{16},,,,,,18,,2b/7b,,,,7,,6,,
{16}2,,3,,5,,5,4,5,,3,,3,4,3,,
{16}6,,6,5,6,,1,8,1,,,,2,,3,,
{16}7,,6,,4,,4,5,4,,6,,6,5,6,,
{16}3,,3,4,3,,8,1,8,,,,2^5[8:1],,1,,
{16}8,,1^4[8:1],,8,,7,,8^3[8:1],,7,,6,,7^2[8:1],,
{16}6,,5,,6^1[8:1],,5,,4,,5^8[8:1],,4,,3,,
{16}4^7[8:1],,3,,2,,3,,2,,1,,7,8,6,1w5[8:1],
{16}7,,,,,,,,18,,,,7,,3,,
{16}3,4,2,,2,,2,1,3,,3,,3,4,2,,
{16}2,,2,1,3,,3,,45,,,,2,,6,,
{16}6,5,7,,7,,7,8,6,,6,,6,5,7,,
{16}7,,7,8,6,,4,,1b,,,,6,5,6,5,
{16}7,,4,5,4,5,3,,6,5,6,5,7,,4,5,
{16}4,5,3,,6,5,6,5,7,,4,5,4,5,3,,
{16}6,5,7,5,8,,4,5,3,5,2,,8,1,8,1,
{16}2-5[8:1]/7-4[8:1],,,,,,,,36,,,,,,,,
{16},,,,,,,,1b/8b,,,,7,,3,,
{16}3,4,2,,2,,2,1,3,,3,,3,4,2,,
{16}2,,2,1,3,8,4,,35,,,,2,,6,,
{16}6,5,7,,7,,7,8,6,,6,,6,5,7,,
{16}7,,7,8,6,1,5,,64,,,,3,6,4,5,
{16}3,,2,6,4,5,3,,1,6,4,5,3,,8,6,
{16}4,5,3,,7b,6,4,5,3,,8b,6,4,5,3,,
{16}1b,6,4,5,3,,2b,6,4,5,3,,1,8,1,8,
{16}2pp4[8:1]/7qq5[8:1],,,,,,,,36,,,,3,,7,,
{16}7,8,6,,6,,6,5,7,,7,,7,8,6,,
{16}6,,6,5,7,4,8,,71,,,,6,,2,,
{16}2,1,3,,3,,3,4,2,,2,,2,1,3,,
{16}3,,3,4,2,5,1,,2-5[8:1]/8-4[8:1],,,,,,,,
{16}7,5,6,5,6,,7,5,6,5,6,,8,5,6,5,
{16}6,,8,5,6,5,6,,1,8,7,6,5,,8,7,
{16}6,5,4,,7,6,5,4,3,,6,5,4,3,4,5,
{16}6^3[8:1],,,,,,,,18,,,,,,,,
{16},,,,,,,,2b-6[8:1]/7b,,,,5-1[8:1]/2,,,,
{16}5/8>6[4:1],,,,6-2[8:1]/8-4[8:1],,,,8b-3[8:1]*-5[8:1],,,,,,,,
{16}1-3[8:1]*-4[8:1],,,,1-7[8:1]*-6[8:1],,,,1,,,,2,,2,,
{16}1/3-7[8:1],,,,6,,6,,5>1[4:1]/8,,,,1<5[4:1],,,,
{16}5-1[8:1],,,,1,,,,7b-3[8:1]/2b,,,,4-8[8:1]/7,,,,
{16}4/1<3[4:1],,,,3-7[8:1]/1-5[8:1],,,,1b-6[8:1]*-4[8:1],,,,,,,,
{16}8-6[8:1]*-5[8:1],,,,8-2[8:1]*-3[8:1],,,,8,,,,7,,7,,
{16}68,,1,,38,,4,,65,,3,4,2,,8,,
{16}65,,3,4,2,4,1,,8b/7b-3[8:1],,,,7/4-8[8:1],,,,
{16}1<3[4:1]/4,,,,3-7[8:1]/1-5[8:1],,,,1bpp2[8:1]*qq8[8:1],,,,,,,,
{16}1^4[8:1],,2,,7-2[8:1],,6,,5,,,,3,,2,,
{16}1-5[8:1]/4-8[8:1],,,,14,,,,7^4[8:1]/4^1[8:1],,,,4w8[8:1]/7,,,,
{16},,,,6,,4,,1b/2b-6[8:1],,,,2/5-1[8:1],,,,
{16}8>6[4:1]/5,,,,6-2[8:1]/8-4[8:1],,,,8b,,,,5^8[8:1],,6,,
{16}3-6[8:1],,2,,1v6[8:1]*v4[8:1],,,,,,,,3,,3,,
{16}24,,5,,74,,8,,21,,7,8,6,,4,,
{16}35,,2,6,3,5,4,,3h[8:1]/6h[8:1],,,,28,,2,4,
{16}3,,35,,3,1,2,,28,,2,6,4,,48,,
{16}4,8,2,6,8,,17,,{32}8b-4[12:1]/2b-6[12:1],73,64,5,,,,,{16},,,,
{16}6,,64,,6,8,7,,71,,7,3,5,,51,,
{16}5,1,7,3,1,,2,,3b,5,4,5,4,5,4,5,
{16}3,6,4,5,2b,5,4,5,4,5,4,5,3,6,4,5,
{16}1b,5,4,5,4,5,4,5,3,6,4,5,8b,5,4,5,
{16}4,5,4,5,3,6,4,5,7b,5,4,5,3,6,4,5,
{16}3v5[8:1]/6v4[8:1],,,,,,,,1b/8b,,,,64,,6,8,
{16}7,,71,,7,5,6,,64,,6,2,8,,84,,
{16}8,4,6,2,4,,53,,1w5[8:1],,28,,1b,,,,
{16}2,,28,,2,4,3,,35,,3,7,1,,15,,
{16}1,5,3,7,5-8[8:1]*-2[8:1],,2/8,,5,,,,3b/7,6,5,6,
{16}5,6,3/7b,4,5,4,5,4,3b/7,6,5,6,5,6,3/7b,4,
{16}5,4,5,4,3b/7,6,5,7,5,6,3/7b,4,5,3,5,4,
{16}3b/7,6,5,7,5,6,3/7b,4,5,3,5,4,3b/7,2b/6,1b/5,4/8b,
{16}7bw3[8:1]/3,,,,7,,,,5>5[2:3],,,,,,,,
{16},,,,,,,,,,,,,,,,
{16},,,,,,,,4,,,,4,,,,
{16}4,,,,4,,5,,4/5-8[4:1],,,,4,,,,
{16}4,,,,4,,8,,4/8-3[4:1],,,,4,,,,
{16}4,,,,4,,3,,4/3-6[4:1],,,,4,,,,
{16}4,,,,4,,6,,4/6p1[4:1],,,,4,,,,
{16}4,,,,4,,1,,4/1q7[4:1],,,,4,,,,
{16}4-1[8:1],,4-6[16:1],,,,,,,,,,,,,,
{16},,,,,,,,,,,,,,,,
&inote_6=(183){1},
{16},,,,,,,,,,,,,,,,
{16},,,,,,,,,,,,,,,,
{16},,,,,,,,,,,,,,,,
{16},,,,,,,,,,,,,,,,
{16},,,,,,,,,,,,,,,,
{16},,,,,,,,,,,,,,,,
{16},,,,,,,,,,,,,,,,
{16},,,,,,,,,,,,,,,,
{16},,,,,,,,,,,,,,,,
{16},,,,,,,,,,,,,,,,
{16},,,,,,,,,,,,,,,,
{16},,,,,,,,,,,,,,,,
{16},,,,,,,,,,,,,,,,
{16},,,,,,,,,,,,,,,,
{16},,,,,,,,,,,,,,,,
{16},,,,,,,,,,,,,,,,
{16},,,,,,,,,,,,,,,,
{16},,,,,,,,,,,,,,,,
{16},,,,,,,,,,,,,,,,
{16},,,,,,,,,,,,,,,,
{16},,,,,,,,,,,,,,,,
{16},,,,,,,,,,,,,,,,
{16},,,,,,,,,,,,,,,,
{16},,,,,,,,,,,,,,,,
{16},,,,,,,,,,,,,,,,
{16},,,,,,,,,,,,,,,,
{16},,,,,,,,,,,,,,,,
{16},,,,,,,,,,,,,,,,
{16},,,,,,,,,,,,,,,,
{16},,,,,,,,,,,,,,,,
{16},,,,,,,,,,,,,,,,
{16},,,,,,,,,,,,,,,,
{16},,,,,,,,,,,,,,,,
{16},,,,,,,,,,,,,,,,
{16},,,,,,,,,,,,,,,,
{16},,,,,,,,,,,,,,,,
{16},,,,,,,,,,,,,,,,
{16},,,,,,,,,,,,,,,,
{16},,,,,,,,,,,,,,,,
{16},,,,,,,,,,,,,,,,
{16},,,,,,,,,,,,,,,,
{16},,,,,,,,,,,,,,,,
{16},,,,,,,,,,,,,,,,
{16},,,,,,,,,,,,,,,,
{16},,,,,,,,,,,,,,,,
{16},,,,,,,,,,,,,,,,
{16},,,,,,,,,,,,,,,,
{16},,,,,,,,,,,,,,,,
{16},,,,,,,,,,,,,,,,
{16},,,,,,,,,,,,,,,,
{16},,,,,,,,2b-6[8:1]/7b,,,,5-1[8:1]/2,,,,
{16}5/8>6[4:1],,,,6-2[8:1]/8-4[8:1],,,,8b-3[8:1]*-5[8:1],,,,,,,,
{16}1-3[8:1]*-4[8:1],,,,1-7[8:1]*-6[8:1],,,,1,,,,2,,2,,
{16}1/3-7[8:1],,,,6,,6,,5>1[4:1]/7,,,,1<5[4:1],,,,
{16}5-1[8:1],,,,1,,,,7b-3[8:1]/2b,,,,4-8[8:1]/7,,,,
{16}4/1<3[4:1],,,,3-7[8:1]/1-5[8:1],,,,1b-6[8:1]*-4[8:1],,,,,,,,
{16}8-6[8:1]*-5[8:1],,,,8-2[8:1]*-3[8:1],,,,8,,,,7,,7,,
{16}68,,1,,38,,4,,65,,3,4,2,,8,,
{16}65,,3,4,2,4,1,,8b/7b-3[8:1],,,,7/4-8[8:1],,,,
{16}1<3[4:1]/4,,,,3-7[8:1]/1-5[8:1],,,,1bpp2[8:1]*qq8[8:1],,,,,,,,
{16}1^4[8:1],,2,,7-2[8:1],,6,,5,,,,3,,2,,
{16}1-5[8:1]/4-8[8:1],,,,14,,,,7^4[8:1]/4^1[8:1],,,,4w8[8:1]/7,,,,
{16},,,,6,,4,,1b/2b-6[8:1],,,,2/5-1[8:1],,,,
{16}8>6[4:1]/5,,,,6-2[8:1]/8-4[8:1],,,,8b,,,,5^8[8:1],,6,,
{16}3-6[8:1],,2,,1v6[8:1]*v4[8:1],,,,,,,,3,,3,,
{16}24,,5,,74,,8,,21,,7,8,6,,4,,
{16}35,,2,6,3,5,4,,3h[8:1]/6h[8:1],,,,28,,2,4,
{16}3,,35,,3,1,2,,28,,2,6,4,,48,,
{16}4,8,2,6,8,,17,,{32}8b-4[12:1]/2b-6[12:1],73,64,5,,,,,{16},,,,
{16}6,,64,,6,8,7,,71,,7,3,5,,51,,
{16}5,1,7,3,1,,2,,3b,5,4,5,4,5,4,5,
{16}3,6,4,5,2b,5,4,5,4,5,4,5,3,6,4,5,
{16}1b,5,4,5,4,5,4,5,3,6,4,5,8b,5,4,5,
{16}4,5,4,5,3,6,4,5,7b,5,4,5,3,6,4,5,
{16}3v5[8:1]/6v4[8:1],,,,,,,,1b/8b,,,,64,,6,8,
{16}7,,71,,7,5,6,,64,,6,2,8,,84,,
{16}8,4,6,2,4,,53,,1w5[8:1],,28,,1b,,,,
{16}2,,28,,2,4,3,,35,,3,7,1,,15,,
{16}1,5,3,7,5-8[8:1]*-2[8:1],,2/8,,5,,,,3b/7,6,5,6,
{16}5,6,3/7b,4,5,4,5,4,3b/7,6,5,6,5,6,3/7b,4,
{16}5,4,5,4,3b/7,6,5,7,5,6,3/7b,4,5,3,5,4,
{16}3b/7,6,5,7,5,6,3/7b,4,5,3,5,4,3b/7,2b/6,1b/5,4/8b,
{16}7bw3[8:1]/3,,,,7,,,,5>5[2:3],,,,,,,,
{16},,,,,,,,,,,,,,,,
{16},,,,,,,,1,,,,,,,,
{16},,,,,,,,,,,,,,,,
{16},,,,,,,,,,,,,,,,
{16},,,,,,,,,,,,,,,,
{16},,,,,,,,,,,,,,,,
{16},,,,,,,,,,,,,,,,
{16},,,,,,,,,,,,,,,,
{16},,,,,,,,,,,,,,,,
