&title=Lapis
&artist=SHIKI
&first=0.02
&des=橘灵oat
&lv_5=13+
&inote_5=(146){4},{1},{4},,,{16}1/8,
,,2,,,{8}4/3,{16},6,{8}5,7,8/7,
{16}8/1,,,7,,,{8}5/6,{16},3,{8}4,2,1/2,
{16}1/8,,,2,,,{8}4/3,{16},5,{8}6/4,7,8/7,
{16}8/1,,,7,,,{8}5/6,{16},4,{8}3/5,2,1/2,
{16}8<4[2:1],,,1,,,{8}2,{16},3,{8}3,2,1,
{16}8>4[8:3],,,7,,,{8}6,{16},5,{8}5,6,7/8<5[4:1],
{16}1,,,2,,,{8}3,{16},4/5,{8}4/5,3,2/1>4[4:1],
{16}8,,,7,,,{8}6,{16},5/4,{8}5/4,6,8/7,
{16}7,5,6,5,,4/5,,3,{8}4,{16}2,1,,7,1,8,
3,1,2,1,,4/5,,7,5,6,5,6,8,7,8,7,
5,6,{8}5,{16}4/5,,,3,{8}4,{16}6,5,,2,{8}4,
{16}7,5,6,5,,7,8,7,2,1,{8}2,1/2,1/8,
{16}2-5[8:1],1,2,1,,7,{8}6,4/5,{24}6,5,6,{8}5h[8:1],7,
{16}7-4[8:1],8,7,8,,2,{8}3,5/4,{24}3,4,3,{8}4h[8:1],2,
{16}2,4,3,5,,6,{8}5,4/5,{32}3,4,3,4,{8}3,2,
8/1,{16}7,8,,3,{8}1,4/5h[4:1],{24}1,2,3,{8}4,5/4,
{16}2b,4,3,4,,5/4,,6,{8}5,{16}7,8,,2,8,1,
6,8,7,8,,5/4,,2,4,3,4,3,1,2,1,2,
4,3,{8}4,{16}5/4,,,6,{8}5,{16}3,4,,7,{8}5,
{16}2,4,3,4,,2,1,2,7,8,{8}7,8/7,8/1,
{16}7-4[8:1],8,7,8,,2,{8}3,5/4,{24}3,4,3,{8}4h[8:1],2,
{16}2-5[8:1],1,2,1,,7,{8}6,4/5,{24}6,5,6,{8}5h[8:1],7,
{16}7,5,6,4,,3,{8}4,5/4,{32}6,5,6,5,{8}6,7,
1/8,{16}2,1,,6,{8}8,5/4h[4:1],{24}8,7,6,{8}5,4/5,
{16}6b,5,6,5,,4/5,,3,{8}4,{16}2,1,,8,3,5,
2,4,3,6,,4/5,,7,5,6,4,5,8,7,1,8,
{32}2,3,4,5,{8}6,{16}4/5,,,3,{8}4/3,{16}6,5/6,,3,{8}2/4,
{16}7,5,7,6,,1,8,1,{32}7,6,5,4,{8}3,1/2,8/1,
{16}2>5[8:1],1,3,8,,7,{8}7h[8:1],5,{24}6,5,6,{8}5h[8:1],7,
{16}7<4[8:1],8,6,1,,2,{8}2h[8:1],4,{24}3,4,3,{8}4h[8:1],2,
{16}2,4,3,5,,6,{8}5,4/5,{32}3,4,3,4,{8}3,2,
8/1,{16}7,8/6,,2,{8}1/3,4/5h[8:3],{24}1,2,3,{8}4,4,
{1}7h[1:1],
6<4[4:3],
5h[1:1],
8<2[4:3],
{2}7,{12}2h[12:1],3h[12:1],4h[12:1],7h[12:1],6h[12:1],5h[12:1],
{8}4h[8:3],,,6h[8:3],,,{4}2,
{2}1-5[8:1],{8}7-3[8:1],{16},,,,8,1,
{2}2-6[8:1]/4-8[8:1],{16}3,4,5,6,3,4,5,6,
{8}2b,{16},,,,6,6,{8}6,{16},,,,4,4,
{8}4,,,6,{4}5/4,{8}4/3,{16}2,4,
{8}3b,,,3,{4}4/5,{16}3,5,4,6,
{8}2h[4:3],,,1,,,{4}8,
{2}7b/1b,{12}2h[12:1],4h[12:1],3h[12:1],7h[12:1],5h[12:1],6h[12:1],
{8}1h[4:3],,,6,,,{4}7,
{2}8-4[8:1],{8}2-6[8:1],{16},,,,1,8,
{4}7-3[8:1]/5-1[8:1],,,4/5,
{8}6,{16}4,5,{8}4,{16}6,5,7,5,{8}8<5[8:1],{4}4,
{8}3,{16}5,4,{8}5,{16}3,4,2,4,1,4,{8}8h[4:1],5,
7,{16}1,8,{8}1,{16}7,8,6,8,{8}5<8[8:1],{4}1,
{8}2,{16}8,1,{8}8,{16}2,1,3,1,4,1,{8}5h[8:1],8,
{16}7,5,6,4,{8}5,{16}6,5,7,4,{8}8,{16}1/8,7/2,{8}6/3,
{16}3,1,2,8,{8}1,{16}2,1,3,8,{8}4,{16}5/4,3/6,{8}2/7,
{16}1,5,3,7,{8}5h[8:1],{16}8,4,6,2,{8}4h[8:1],{16}8b,7/1,{8}6/2,
{16}3,4,2,4,{8}1h[8:1],{16}7,8,6,8,{8}5h[8:1],{16}1,8/2,{8}3b/7b,
{48},,,,,,,,,,,,1b,8/2,3/7,6/4,{3}5,{12},,,,,,,{4}6h[2:1],
,5,
4-8[8:1],4b/3>5[2:1],,,,3h[2:1],
,4,
{8}3/5-1[8:1],4/6,{4}5b/7>5[2:1],,,,1h[2:1],
,6,
7,1/8-5[2:1],,2,
3,{8}4b/5b,{32}8,1,2,3,{8}4b/5b,{32}1,8,7,6,{4}5b-8[8:1]/4b-1[8:1],
4b/5b,{16}2-5[8:1],1,3,1,{8}2,{16}7-4[8:1],8,6,8,{8}7,
3,2/1,{16}6-1[8:1],5,7,4,{8}6,{16}3-8[8:1],4,2,5,{8}3,
7,5/6,{16}2-5[8:1],1,3,4,{8}2,{16}7-4[8:1],8,6,5,{8}7,
3,2/1,{16}2,4,1,8,5,7,4,5,2,4,1,8,
{4}2b/7b,{16}7-4[8:1],1,6,5,{8}7,{16}2-5[8:1],8,3,4,{8}2,
{16}7,8,6,1,2-5[8:1],5,3,1,{8}2,{16}7-4[8:1],4,6,8,{8}7,
{24}1,2,3,4,{48},,,,{16}2-6[8:1],6,4,8,{8}2,{16}7-3[8:1],3,5,1,{8}7,
{16}2,4,1,8,5,7,4,5,2,4,1,8,{32}1,2,3,4,5,6,7,8,
{4}1/5b,{16}7-4[8:1],8,6,1,{8}7,{16}1>4[8:1],5,,5,{8}1,
{16}6,7,{8}8/4,{16}6,5,7,5,{8}8,{16}3,4,2,4,{8}1h[4:1],
{16}8,8,{8}8,{16}2-5[8:1],1,3,8,{8}2,{16}8<5[8:1],4,,4,{8}8,
{16}3,2,{8}1/8,{16}2,5,4,7,1,8,2,5,4,8,2,6,
{4}7b-4[8:1]/3b-1[8:1],3b/7b-3[4:11],
E
