&title=今宵mofumofu!!
&artist=仙狐(CV:和氣あず未)、シロ(CV:内田真礼)「世話やきキツネの仙狐さん」
&first=0
&des=尘落南丘
&clock_count=4
&lv_5=12
&inote_5=(206)
{1},,
{1}3h[2:1]/6h[2:1],2/5>7qq5[2:3]*>7qq5[2:3],,7/4<2pp4[2:3]*<2pp4[2:3],,
{24}3h[2:1],,,,,,,,,,,,B1,C,B5,,,,,,,,,,6h[2:1],,,,,,,,,,,,B8,C,B4,,,,,,,,,,
{8}4q5[2:1],,,5,5,,,,
{12}6,,6,5,,5,4,,4,B2/B1,,,
{12}4,,5x,4,,3x,4,,5x,4,,3x,4,,6x,4,,2xv8[6:1]*v5[6:1],,,,,,,
{12}6h[4:1],,,5,,6x,5,,4x,5,,6x,5,,3x,5,,7xv1[6:1]*v4[6:1],,,,,,,
{12}3h[4:1],,,4,,2x,4,,6x,4,,2x,4,,6x,4,,2xv8[6:1]*v5[6:1],,,,,,,
{12}6h[4:1],,,5,,7x,5,,3x,5,,7x,5,,3x,5,,7xv1[6:1]*p2b[6:1],,,,,,,
{2}3V57[2:1],7V13[2:1],3q8[2:1],8q5[2:1],5q2[2:1],2>7[4:3],5q1[4:1],
{4},1^4[4:1],17,5^8[4:1],53,,
{4}2V86[2:1],,6V42[2:1],,2p5[2:1],,5p3[4:3],,E8,E7,E6,2h[4:1],
{12}5,,4,6h[4:1],,,8-2[8:1],,,83,,,
{12}4,,5,3h[4:1],,,1-7[8:1],,,16,,,
{12}6,,5,7h[4:1],,,4,,6,3,,5q7[12:5],E2,,,E3,,,E4,,,
{12}3,,4,2,,,6,,5,7,,,
{4}4,3^5[8:1],6,7^5[8:1],3,2^5[8:1],7,8^5p4^2[1:1],
{4},E3,C,E7f,,
{12}4,,2x,6,,4x,5,,3x,7,,5x,6,,4x,8,,6xq2[6:1]*v3[6:1],,,,,,,
{12}5,,7x,3,,5x,4,,6x,2,,4x,3,,5x,1,,3xp7[6:1]*v6[6:1],,,,,,,
{4}5<1[4:1],B3,4>8[4:1],B6,5<1[4:1],C,4>8[4:1],C,6<2[4:1],B4,3>7[4:1],B5,
{8}46,,4,5pp6[4:1]/3qq2[4:1],,,,,
{12}3,,6,2,,5,4,,7,3,,6,5,,8,4,,7p3[6:1]*^4[6:1],,,,,,,
{12}6,,3,7,,4,5,,2,6,,3,4,,1,5,,2q6[6:1],,,,7,,,
{12}6bx/8b,,,1,,2/7p3[6:1],,,2,,,,3bx/1b,,,8,,7/2^4[6:1],,,,
{12}6,,,5h[4:1]/7,,,B4,,,5h[4:1]/3,,,B6,,,3,,4,7,,6>6[12:13],,,,,,,
{1}Ch[4:3],
{4}2-7[4:1],,6-3[4:1],,
{4}1<3[4:1],7,8>6[4:1],2,1<3[4:1],6,8>6[4:1],3,1<3[4:1],17,8>6[4:1],28,
{4}1<3[8:3]*pp3[8:3],,,
{12}2xh[6:1],,4pp5b[4:1],3qq2b[4:1],,,C,,,,,,
{12}7xh[6:1],,5qq4b[4:1],6pp7b[4:1],,,C,,,,,,75,,,
{4}7<4[8:1]/5,7,2>5[8:1]/4,2,7v4[8:1]/5,7,2v5[8:1]/4,2,
{4}4<2[4:1],6,5>7[4:1],3,4<2[4:1],7,5>7[4:1],2,4<2[4:1],46,5>7[4:1],35,
{4}5>7[8:3]*pp7[8:3],,,
{12}6xh[6:1],,4qq3b[4:1],5pp6b[4:1],,,C,,,,,,
{12}2xh[6:1],,8qq7b[4:1],1pp2b[4:1],,,C,,,,,,68,,,
{4}6<1[8:1]/8,6,3>8[8:1]/1,3,6v1[8:1]/8,6,3v8[8:1]/1,3,
{12}7hx[16:3],,B4,6hx[16:3],,B3,5hx[16:3],,B2,4hx[16:3],,,
{12}1,,,2hx[16:3],,B5,3hx[16:3],,B6,4hx[16:3],,B7,
{12}5hx[16:3],,B8,6hx[16:3],,,{1}8bqq6>8b[4:3],
{4},2q6[8:1]*^8[8:1],,7p3[8:1]*^1[8:1],,4w8[8:1],4bx,8w4[8:1],8bx,
{8}3q6[2:1],,,5,5,
