&title=デンデラパーティーナイト
&artist=森羅万象
&first=-0.08
&des=ImagineWind
&des_5=ImagineWind
&lv_5=13+
&inote_5=(180){4},{1},{4},,,4h[1:1],
{12}B6,,{96}B7,{16},{96}B8,{4},C,
{2}7h[1:1],C,
{4}3h[1:1],B5,B8,B6,
{1}Ch[2:1],
{4}6h[1:1],{12}B3,,B2,{96}B1,{4},{96}C,{16},,,{48},,{1}2h[2:1],
{4}8/1,2,3,4,
7,6,5,5/4,
{1}B1/B4/B2/B3/E2/E4/E3/Cf,
B8/E8/B7/E7/B6/E6/B5/Cf,
{6}2/5,{12}3,4,,4,{6}3,{12}6,5-1[8:1],,4,
{4}5b-3[8:1]*-7[8:1],5bw1[8:1],{48}5b,{16},,,{48},E8f/E2,{96},B2f/B7,{48},{96}B6f/B3,{48},{96}E4f/E6,{6},{4}3x/6x,
{12}3,,3,{4}1,8<4[4:1],
4>8[4:1],8V64[4:1],4V28[4:1],8,
4,{12}4,,4,{4}6,1V35[4:1],
5V71[4:1],1pp4[2:1],5,{12}5x,6x,7x,
{4}8x,{12}8,,8,{4}1,7p3[4:1],
3p7[4:1],7,3,7,
{12}4,5,3,7,{6},{12}5,4,6,2,{6},{12}2b,
2,2,5b,5,5,3b,3,3,7b,7,7,
(182){2}3h[8:3],4h[8:3],
5h[8:3],{6}6h[6:1],7h[6:1],8h[6:1],
1,{12}2/7,7/2h[2:3],{6},{2}E1,
E7,E5,
1h[8:3],8h[8:3],
6h[8:3],{6}4,2,8,
7<4[8:1],{12}8,7,{6},2>5[8:1],{12}1,2,{24},{8}8bh[8:7],
{4},{16}E1,E2,E3,E4,{4}E5,Cf,
{8}2h[8:3],{4},{8}3,3h[8:3],{4},{8}4,
4h[8:3],{4},{8}5,{6}5h[6:1],7h[6:1],6h[6:1],
1,{12}7/2,2/7h[2:3],{3},,{6}1,
{12}2,2h[2:1],{3},,{8}6h[8:3],
{4},{8}1,1h[8:3],{4},{8}8,
8h[8:3],{4},{8}1,{16}2/7,{8},{16}3/6,{8},4/5,
{6}3>8[8:1],{12}4,3,{6},6<1[8:1],{12}5,6,{24},{8}4xh[8:7],
{4},{16}E1,E8,E7,E6,{4}E5,Cf,
(180){8}2h[8:3],{4},{8}8,{16}8,{8},{16}7,{8},6,
{16}2h[16:3],{8},{16}3h[16:3],{8},4h[2:1],{16}B8,{8},{16}E7,{8},B5,
7xh[8:3],{4},{8}2,{16}1,{8},{16}2,{8},3,
{16}7h[16:3],{8},{16}6h[16:3],{8},5h[2:1],{16}B1,{8},{16}E3,{8},B4,
6xh[8:3],{4},{8}2,{16}1,{8},{16}2,{8},3,
{16}7b,{8},{16}6b,{8},5b,{16}4b/6b,{8},{16}3b/7b,{8},4b/6b,
{6}3,{12}3,4,,4,{6}5,{12}5,6,,6,
{6}7,{12}7,8,,8,{8}1,1xh[4:1],,8x,
{4}1b-5[8:1]/8b-4[8:1],8b/1b,{6}3bx/6bx,2bV84>1[6:5]/7bV15<8[6:5],{12},7bx/2bx,
{1},{12}6,
5,6,5,{6},{12}3,4,3,4,{6},{12}6b,
6,6,2b,2,2,{8}1b/8b,{4},{8}2x/7xp3[8:1],
,{24}7,,2>5[8:1],{8},{24}2,,8-5[8:1],{8},{24}8,,1>4[8:1],{8},{24}1,,7-4[8:1],
{16},,,{48},{24}7bx,{8},2-6[8:1],,2bx/8p4[8:1],,{24}8,,1q6[8:1],
{8},{24}1,,7-3[8:1],{8},{24}7,,1-4[8:1],{8},{24}1,,6>3[8:1],{8},{24}6,,2xh[4:1],
{16},,,{48},{24}7,{8},1bs5[8:1]/8bz4[8:1],{4},{8},7/2>5[8:1],
,{24}2,,7-4[8:1],{8},{24}7,,1q5[8:1],{8},{24}1,,8p4[8:1],{8},{24}8,,2-6[8:1],
{8},{24}2,,7-3[8:1],{8},7,{12},1-5[8:1],{6},{12}1x,8x,
,3,{6}2/4b,{12}6,7/5b,,4qq5[8:5]/5pp4[8:5],{6},4x/5x,
{4},,{12},2>5[8:1],{6}1,2,
{12},7-5[8:1],{6}1-4[8:1],{12}7,1,,8-5[8:1],{6}1q5[8:1],{12}8,1,
,8w4[8:1],{6}1,{48}8b,{24},{48}Cf,{4},{12},,{6}7,
{12},2>5[8:1],{6}7-5[8:1],{12}2,7,,1q5[8:1],{6}8-5[8:1],{12}1,8,
,1w5[8:1],{6}8,{48}1b,{24},{48}Cf,{4},{12},,{6}2v5[8:1],
{12},2x,{6}8p4[8:1],{12}8,1>4[8:1],,1,{6}7,{12}7,2-5[8:1],
,7-4[8:1],{6}2,{24}7,{6},{24}5x-2[8:1]*-8[8:1],{16},,,{48},{24}5x,{16},,,{48},{24}1,
,{8}8,{24},8,,{8}7,{24},7,,{8}6,{24},6,,{8}4>8[4:1],
,8<4[4:1],,5xh[8:1],{2},{12}8,
1,,1,2,,2,3,,{4}3h[2:1],
,7,{12}7p3[8:1],1,,7,1-5[8:1],{6},{12}1-3[8:1],
{6},1,{12}8,1b,,4,1b,,7,
1b,,5,1b,{6},{96}1b/8b,{48},{96}2x/7x,{48},3x/6x,{96},4x/5x,{16},(181){8},6x/3x,
,6,{24},6,,{8}8,,1>5[4:1],,5<1[4:1],
,1V35[4:1],,5V71[4:1],,1,,5,
,5,{24},5,,{8}3,,8V64[4:1],,4V28[4:1],
,8qq5[2:1],{4},{8},{24}4x,,3x,,2x,,{8}1x,
,1,{24},1,,{8}8,,2q6[4:1],,6q2[4:1],
,2,,6,,2,{16},{48},,1x,{16},2,
{48},3,{16},{48}8x,{16},7,{48},6,{16},{48}2x,{16},3,{48},4,{16},{48}8x,{16},7,{48},6,{16},{48}2x,{16},3,
{48},4,{16},{48}7x,{16},6,{48},5,{16},{48}3x,{16},4,{48},5,{16},{48}7x,{16},6,{48},5,{16},{48}3xh[6:1],{16},,{48},5,
{16},{48}3xh[6:1],{16},,{48},5,{16},{48}3xh[6:1],{16},,{48},5,{16},{48}3xh[6:1],{16},,{48},5,{16},{48}3x,{4},{8}E5,
,C,{4},{64},,,{192},{96}E7,{1},{16},{8}E3,
{4},,,{8},C,
{4},,,{12},{6}E1,
{3},C,{16},,,{48},{8}5x/E4,
,6x/E3,,7x/E2,,8x/C,,4x/E6,
,3x/E7,,2x/E8,,1x/C,(180){12},2b-5[8:1],2,
2,2x,{8},{24}7,,8b-5[8:1],,8,,8,,{8}8x,{12},1b-4[8:1],1,
1,1x,{8},{24}5x,,{8}3bx/6bx,{24},7b/2b,,{8}1b/8b,{24},7bx/2bx,,{8}1b-5[8:1]/8b-4[8:1],
,1b>4[8:1]/8b<5[8:1],,1bs5[8:1]/8bz4[8:1],,8b/1b,{12},{6}2bx/7bx,
{12}8bx/1bx,2bx/7bx,,8bx/1bx,6bx/3bx,{4},{24},8x/2xq6b[8:1],{16},,,{48},{24}2,
,7<4b[8:1],{8},{24}7,,1-4b[8:1],{8},{24}1,,8<5b[8:1],{8},{24}8,,2-5[8:1],{16},,,{48},{24}2bx,
{8},{24}7-3[8:1],{16},,,{48},{24}7bx/1q5b[8:1],{16},,,{48},{24}1,,8p3b[8:1],{8},{24}8,
,2q6b[8:1],{8},{24}2,,8-5b[8:1],{8},{24}8,,3<6b[8:1],{8},{24}3,,7xh[4:1],{16},,,{48},{24}2,
{8},{24}8bz4[8:1]/1bs5[8:1],{4},{16},,,{48},{24}2/7-4b[8:1],{16},,,{48},{24}7,
,2-5b[8:1],{8},{24}2,,8p4b[8:1],{8},{24}8,,1q5b[8:1],{8},{24}1,,7-3b[8:1],{8},{24}7,
,2,{8},{24}1b,{16},,,{48},{24}1-5[8:1],{16},,,{48},{24}1,,7<4[8:1],{8},{24}7,
,2-4[8:1],{8},{24}2,,8-6[8:1],{8},{24}8,,2x,{8},{24}2x,,2bx,3x,4x,5x,6x,
7x,8bx,1x,2x,3x,4bx/5bx,{6},{12}7-4[8:1],{6}8,7,{8},{24}2-4b[8:1],
,8-5b[8:1],{8},{24}2,,8,{8},{24}1-4b[8:1],,8p4b[8:1],{8},{24}1,,8,{8},{24}1w5b[8:1],
,8,{8},{24}1b,{48}B1,Cf,{24}B6/B5/B4,{4},{8},{24}2v5[8:1],{16},,,{48},{24}2x,
,8p4[8:1],{8},{24}8,,1>4[8:1],{8},{24}1,,7,{8},{24}7,,8bx,7x,6x,5x,4x,
3x,2x,1x,8x,7x,6bx/3bx,{4},{16},,,{48},{24}3v8[8:1],{16},,,{48},{24}3x,
,5q1[8:1],{8},{24}5,,4>1[8:1],{8},{24}4,,6,{8},{24}6,,3-8[8:1],{8},{24}6-1[8:1],
,3,{8},{24}6,{6},{12}8x-3[8:1]*-5[8:1],{6},{12}8x,{6},{12}4,
{6}5,{12}5,6,,6,{6}7,{12}7,8>4[4:1],{6},{4}4<8[4:1],
7xh[8:1],,{12},,4,
{6}5,{12}5,6,,6,{6}7,{12}7,8,,8,
{6}1,{12}1,2,,2b,{4},2b/7b-4[8:1],
7b/1b-5[8:1],1b/8b-4[8:1],8b/2b,{12}1b/8b,,2,
{6}1/3,{12}7,6/8,,4h[24:7]/5h[24:7],{4},{8},{24}1,,2,
{8},{24}2,,3,{8},{24}3,,4,{8},4h[2:1],{4},{8},5,
,{24}5,,4,{6},{12}4,3x/6x,{4},{24},2x/7x,
,3x/6x,{4},{8},{24}2x/7x,,3x/6x,{8},{24}2x/7x,,3x/6x,
{8},{24}2x/7x,,3xh[4:1]/6xh[4:1],{4},{16},,,{48},{24}1>5[4:1],{16},,,{48},{24}5<8[4:1],
{16},,,{48},{24}8>3[4:1],{16},,,{48},{24}3<5[4:1],{16},,,{48},{24}5<1[2:1],{4},{16},,,{48},{24}1>5[2:1],
{4},{16},,,{48},{24}7b,{16},,,{48},{24}7b,
{16},,,{48},{24}8b,{8},{24}1,,8b,{8},{24}4,,8b,{8},{24}2,,8b,
{8},{24}3,,8b,{16},,,{48},{96}1b/8b,{48},{96}2bx/7bx,{48},3bx/6bx,{96},4bx/5bx,{8},{16}3x/6x,,,,3,
,{48},,3,{16},1,,,,8<4[4:1],,,,4>8[4:1],,,,8V64b[4:1],
,,,4V28b[4:1],,,,8,,,,4,,,,4,
,{48},,4,{16},6,,,,1V35[4:1],,,,5V71[4:1],,,,1pp4[2:1],
{4},{16},,,5x,{48},6x,{16},{48}7x,{16},8x,,,,8,
,{48},,8,{16},1,,,,7p3[4:1],,,,3p7[4:1],,,,7,
{6},3,{16},{32},{96}7,{16},,,{48},,{12}4b,5,3,7,
{6},{12}5b,4,6,2,{6},{12}2b,2,2,5b,
5,5,3b,3,3,7b,7,7,{3}1h[2:3],
{4},,,{12},,C,
{6},E1,
