&title=你先别急 feat.初音未来
&artist=CヰEL文
&first=0
&des=HPjun
&lv_7=急
&inote_7=(70)
{8},,1>5[2:1],1,1,
{16},4,5?<1[2:1],,2,,6,,,8,1?>5[2:1],,,7,6,,6,5,,,8<5[8:1],,4>1[8:1],,,,4,,8,,1s5[4:1],,,1,1?<5[8:1],,7,,1,,,,4-8-2-7[8:3],,,,54,,6,6,,,,,C,,E6,,E5,,E4,6,4-8[4:1]/5,,,,8-6[8:1],,6-2[8:1],,2-5[4:1],,,,5-8[8:1],,8-3[8:1],,3<6[4:1],,,,6-3[8:1],,3-8<7-3[4:1]*-6<7-3[4:1],,,,,,,,,,5-1[4:1]/4,,,,1-3[8:1],,3-7[8:1],,7-4[4:1],,,,4-1[8:1],,1-6[8:1],,6>3[4:1],,,,3-6[8:1],,6-1>2-6[4:1]*-3>2-6[4:1],,,,,,,,
(140)
{8}7,6,5pp1[4:1],,5,4,3qq8[4:1],,3,4,5<8[8:1],,5,3,2q7[8:1],,2,3,4qq8[4:1],,4,5,6pp1[4:1],,6,5,4>1>4[2:1],,,,,,
{2048}5,
{8}6?-2[2:1],,6h[2:1],,,,,,4,,3,,2,,
{32}1b,1x,1x,1x,1x,1x,1x,1x,1x,,,,,,,,7b,7x,7x,7x,7x,7x,7x,7x,7x,7x,7x,7x,,,,,4b,4x,4x,4x,4x,4x,4x,4x,4x,4x,4x,4x,4x,4x,4x,4x,4x/5b,4x/5x,4x/5x,4x/5x,4x/5x,4x/5x,4x/5x,4x/5x,4x/5x,4/5x,4x/5x,4x/5x,4x/5x,4x/5x,4x/5x,4x/5x,3,6,3,6,3,6,3,6,3,6,3,6,3,6,,,
(35){16}2-4[32:1],8-6[32:1],1-5[32:1],37,2b,8b,1b,4b>8[2048#1:1]*<8[2048#1:1],1-5[16:1]b/2-4[16:1]b,4-8[16:1]b,7-5[16:1]b/8-4[16:1]b,5<4[16:1]b,,,,,
(1120){1}1bx-5[2:1],,8bx-6[2:1],,1bx-3[2:1],,8bx-4[2:1],,3bx-1[2:1],,6bx-8[2:1],,4bx-2[2:1],,5bx-7[2:1],,4bx-1[2:1],,5bx-8[2:1],,1bx>4[2:1],,8bx<5[2:1],,
(140){32}1$b,2$,3$,4$,5$,6$,7$,8$,1$b,2$,3$,4$,5$,6$,7$,8$,1$b,2$,3$,4$,5$,6$,7$,8$,1$b,2$,3$,4$,5$,6$,7$,8$,
{2}1b-5[1:1],,,7,8<4[1:1],,,2,3-7[4:1],
{4},D7f,E7f,Cf,E3f,D3f,
