&title=ダイアグラム
&artist=あばらや
&first=3.4
&des=它将连接
&des_5=
&lv_5=14
&inote_5=(60)
{12}
6q2[16:5]/2q6[16:5],,,,,,,,1<5[16:5]/5>1[16:5],,,,,,,,4pp7[16:5]/8pp3[16:5],,,,,,,,2-6[12:5]/6-2[12:5],,,,,,,,
(180)
{64},,,,,,,,,,,,,{8}E5,{24}E4,,,,,,,,,,,,,,,,,,,,,,,,,
{8}6,5qq4[12:5],,7,,7,,7h[8:2],,6h[8:2],,5h[8:2],,4h[8:2],,5,4,6pp7[12:5],,5,,5,,5h[8:2],,6h[8:2],,7h[8:2],,8h[8:2],,1,8,2pp3[12:5],,1,,1,,8,2,,E5/B5,,E3/B3,,B7,E7,,4,6,5qq2[16:16]*<1[16:9],,,,,,,,,,,5,5,{16}5,3,{8}4pp5[12:5],,2,,2,,2h[8:2],,3h[8:2],,4h[8:2],,5h[8:2],,4,5,3qq2[12:5],,4,,4,,4h[8:2],,3h[8:2],,2h[8:2],,1h[8:2],,8,1,7qq6[12:5],,8,,8,,1,7,,E5/B4,,E7/B6,,B2,E3,,5,3,4-8[12:3]/3V15[16:9],,,,,,,,7h[16:10],,6h[16:6],,,,7bx/6bx,,65,,4,5-3[8:1],E3h[16:2],5,,2,2,{16}4,3,D5,D6,D7,D8,B2/E3/A2/E2,,,,{8}13,,24,,5,3-5[8:1],,36,,7,{16}5,6,5,,6h[16:2],,5h[16:2],,4h[16:2],,3h[16:2],,4-6[8:1],,3,,,,1-3[8:1],,8,,,,E7h[16:2],,4,,,,{8}7,7,{16}5,6,D5,D4,D3,D2,B7/E7/A7/E8,,,,{8}8,6,6,5,7-4[8:1],4-6[8:1],,,,3h[16:1],3,7,4V25[12:3],5,,,6-8[8:1],,56,,4,1p5[8:1],E3h[16:2],1,,2,2,{16}4,3,5hx[16:1],,4hx[16:1],,D6/E6/A6/B6,,4,,{8}
7-5[8:1],,87,,1,4q8[8:1],2,4,,3,{16}1,2,1,,{8}2h[16:2],1h[16:2],8h[16:2],7h[16:2],
{16}8-2[8:1],,7,,,,5-7[8:1],,4,,,,E3h[16:2],,8,,,,{8}4,4,7,3,3,B6/D6/A6/E6,1,
4>1[8:1],,2-6[8:1],,8<5[8:1],7,{16}4,3,2,1,A4fh[16:8]/E4fh[16:10]/A8fh[16:9]/E8fh[16:11],,,,,,,,,,,,Cfb,,,,
{8}3b/7b-3[8:1],,78,,1>4[8:1],4-8[8:1]*-7[8:1],1,,,6,5<8[8:1],4,35,2x,1x/2x,,3<6[8:1]/4,,7h[16:4],,8-4[8:1],7-1[8:1],,,,3,1>4[8:1]/2,8,17,6x,5x/6x,,
4b-8[8:1]/7b-5[8:1],,47,,1-3[8:1],4-8[8:1],1,4,,5,57,6,45,3x,
1x>4b[8:1]/2x,,5bxqq4[12:3],,6bx<1[8:1],,6bxpp7b[12:3],,5bx,,,3,26,26,5v8[8:1]/1v4[8:1],,,,
{16}3b-7[8:1]/7b-4[8:1],,,,{8}3/7>4[12:3],,5,6,6,5,7-5[8:1],8,3V14[12:3],2,4x-8[8:1],5x,6x,,1-6[8:1]/6-8[8:1],,1/6>1[12:3],,1,8,7,8,6-8[8:1],5,1-6[8:1],2,5x-1[8:1],4x,3x,,
2b-4[8:1]/3b-8[8:1],,3<8[12:3]/2,,1,2,3,3,1>4[8:1],4<7[8:1],A1,,8,1x,1x/2x,,
1bx-4[8:1]/2bx-5[8:1],,1bx/2bx,,7bx-2[8:1]/6bx-1[8:1],,6bx/7bx,,,34,45,56,47,{16}36,25,{8}1-5[8:1]/4-7[8:1],,4b-2<1-5>4-7>8-6[12:37]/1b,,,,,,,,,,,,,,,,Ch[16:24],,,,,,,,,,,,,,,
6,5qq4[12:5],,7h[16:3],,7h[16:2],,7h[16:2],,7,6,5h[16:4],,6,5,4,,6pp7[12:5],,5h[16:3],,5h[16:2],,5h[16:2],,5,6,7h[16:3],,7x>1[8:1],,3,,2pp3[12:5],,1h[16:3],,1,,8,2,,E5,E3,B5,B3,B6,B4,E7,5pp2[12:9],,7h[16:14],,,,,,,,7<4[8:1]/1>3[8:1],,,,,
3,4pp5[12:5],,2h[16:3],,2h[16:2],,2h[16:2],,2,3,4h[16:3],,3,4,5,,3qq2[12:5],,4h[16:3],,4h[16:2],,4h[16:2],,4,3,2h[16:3],,2x>4[8:1],,6,,7qq6[12:5],,8h[16:3],,8,,1,7,,E5/B4,,E7/B6,,B2/E3,,5,5,3,4<8[12:5]*q1[12:5],,,,,,,2,2,4,3,5,4,6,5>2[12:3],,2<7[12:3],,7<4[12:3],,4>1[12:3],,1<6[12:3]*s5[12:3],,,,,,3<5[8:1],,6bpp5[16:5],,4,3,2h[16:4]x,,E5h[8:1],2>7[12:3],,7,8h[16:4],,{16}1x,D2,D3,D4,B7/E8/A7/E7,,,,5p1[12:3]/6,,,,1-3[8:1],,8,,7x<4[8:1],,,,4,,3h[12:3],,,,2,,3,,5,,1x>4[8:1]*v6[8:1],,C,,,,,,7bqq8[16:5],,8,,5,,4,,3xh[16:4],,,,1h[16:2],,2h[16:2],,3<6[8:1],,2,,,8x,,,1xp5[8:1],7,,2x,,,,,3h[16:4]/4h[16:2],,,,4<7[8:1],,3,,4xqq3[12:3],,,,8,,8qq1[12:4],,,,,,{12}4x,,3x,3xh[16:4],,,1x,3x,4x,
{16}2x>5[8:1],,5,,6,7x,8,,8x,,6,,7,5x,6,3,4,3xh[16:4],,,4x,4x,3x,,5x,4,6,5xh[16:3],,,{24}7x,6x,5x,{8}4x,1,2x/3x,2x/3x,{16}4,3x,7-1[8:1],,5,,7x,,4,,2x/3x,,,5x/6x,,,7x<4[8:1]/8x,,,,{24}4x,3x,2x,1x,,,{16}1b,,4h[16:2],,1,4x,2,,2x,,6,,6,4x,7,5,7,8xh[16:4],,,6x,6x,8x,,8x,7,1,8x,,,{24}2x/8x,3x/7x,4x/6x,{16}5x,,,,3x/4x,,1x/7x,,7,1x,6,,2,,8x/2x,37,4/6h[16:4],,,,8h[16:4],,,,A4h[16:4],,,,A2,,5,,{8}5bq1[8:1]/3,,,4,5qq4[12:3],,,4,5<8[8:1],,,4,3h[8:1],1h[8:1],3h[8:1],4h[8:1],8q4[8:1],,,7,8qq7[12:3],,,7,8>3[8:1],,,5,6-2[8:1],7-4[8:1]/4,,,1q5[8:1],,,8,1qq8[12:3],,,8,1>4[8:1],,,8,7h[8:1],5h[8:1],7,5-7[8:1]/6-4[8:1],5x/6x,,,3-6b[8:1]/8-5[8:1],4x/7x,,,1-5b[8:1]/2-6b[8:1],8x/3x,,,,47,3,62,5,3/4bqq3[12:3],,2,3,4qq5[12:4],,6,5,4qq6[12:4],,6,7,8,8h[8:1],7h[8:1],6h[8:1],
5qq4[12:3],,3,4,5qq6[12:4],,7,6,5qq7[12:4],,7,8,1q5b[8:1],1p5b[8:1],,,
3b<6[8:1],2,2,1x,8b>3[8:1],7,7,6x,5b<8[8:1],4,4,3x,2b>5[8:1],1,1,8x,{16}8b,6,8,6,7,5,6x,4,5b,2,5,2,4,2,3x,2,1b,2,8,1,7b,8,6x,5,7b,3,4,3,5b,2,E5,,E1,,,,,,,,,,,,,,,,,,,,,,,,,,,,,,,,
{4}1bxV35[12:5]*V75[12:5]/Cf,,,,4bxpp1[12:6]/E6f,,,6,5bxV37[12:5]*V31[12:5]/E1f,,,,6bxqq3[12:6]/E5f,,2,1,4bxV25[12:5]*V68[12:5]/B1f/E1/E2,,,,1bx>7[12:6]/B5f/E5/E6,,,8,1bxv4[12:5]*v6[12:5]/B7f/E8/E7,,,,3bx-1[8:1]/7bx-5[8:1],,8bxv3[8:1]/4bxv7[8:1],,1bxqq3[12:6],3,4bx,5,5bx>2[8:1]/6,1,8bx<5[8:1],1,8bxqq3[12:6],3,4bx,5,5/6bxq2[8:1],2v5[8:1],4bx>1[8:1]*<7[8:1],,8bxV24[12:3],7,5bxV71[12:3],4,2bxV46[12:3],1,8bxp4[8:1]*q4[8:1],8,{8}3-7[8:1],2,5-1[8:1],6,{16}1,2,3,4,8,7,6,5,4v6[12:3]/8v2[12:3],,,,,,,,,,,,
2h,5h,3h,6h,
2b-4[8:1],,,,12,,,8,5-1[8:1],,7-4[8:1]/4,,,,,,8-3b[8:1],,5,,6,,7,,8-5[8:1]/4-1[8:1],,84,,C,,,,6x-8[8:1]/2x,,,,65,,,4,1-5[8:1],,8/3-8[8:1],,,,,,4-7b[8:1],,1,,2,,3,,4>1[8:1]/8-4[8:1],,5x/1x,,8x/4x,,,,
{8}5b<8[8:1],,{16}54,,,2,1-5[8:1],,3,,1,,2,,4>1[8:1],,1<6[8:1],,A4,,
,,5,,4x,,{8}4x>1b[8:1]/3x,,8bxpp1[12:3],,7bx<4[8:1],,7bxqq6b[12:3],,8bx,,,4,37,37,28,{16}8,2,7h,1h,6h,2h,
7b-5[8:1],,,,87,,,3,4x-8[8:1],,2-5[8:1],,4,,2<5b[12:3],,,,{8}4,3V14[12:3],3,4x-8[8:1],6x,8x,,1bq5[8:1]/7b,,{16}71,,,8,{16}6x-2[8:1],,7-4[8:1],,6,,7>4b[12:3],,,,{8}5,6V84[12:3],6,4x-7[8:1],2x,3x,,
{8}4bx/7-3[8:1]bx,6,1-6[8:1],2,4-8[8:1],5,2-5[8:1],3,1-6[8:1],8,4-2b[8:1],2-5[8:1],5x-7b[8:1]*-8[8:1],7x,,,
{16}2x/1x,,2/3,,4x/3x,,4/5,,
4x/5x,6,7,8,
2x,3,4,5,
8x,5,6,4,
7x,3,4,3,
5x,1,7,3,
8x-4b[8:1],2q6[60#32:11],6q2[60#24:8],4,{8}8b,,,,,,,,,,,,,,,,
(60){24}5>1[16:5],,,1<5[16:4],,,,,,,,,,,,,8pp3[16:5],,,4pp7[16:4],,,,,,,,,,,,,{16}2-6[12:5],,6-2[24:7],,,,,,,,,(180)
{64},,,,,,,{8}E5,E4,
