&title=シグナルグラフ
&artist=Annabel
&first=0
&des=uapy
&des_5=uapy
&lv_5=13
&inote_5=(167){4},{8},,,,,,,,,,,,,,3,
3,{4}3,{8}6,6,{4}6,
{8}4,4,{4}4,{8}5,4,{4}6,
{8}3,4,5,6h[4:1],,5h[4:1],,4h[4:1],
,3V14[4:3]*pp4[4:3],,,,,,,,,,6-4[8:1],
,3,,2-4[8:1],
,5,,7-5[8:1],,4,,2,
,4/3,,5-7[8:1],,3,,4-2[8:1],
,7,,6-4[8:1],,1,,2,
3/5,6,,7h[4:1],,5,{4}5h[4:1],
{8}4,5/3,{4}2/6<5[2:1],{8},3h[8:3],,,,,,3,
,3,,3,
,3,,5,,5,,5,
,5,,4/6,,4,,4,
,4,,7/4>8[8:3],,7,,7,
,7,,6/2pp1[2:1],,6,,6,
,6,,5/1qq4[2:1],,5,,5,
,5,,3/4h[8:3],,3,,3,
,3/4h[8:3],,3,,3,,5,
5,6/4,4,7-5[8:1],,4,,2-5[8:1],
,1/2,,7-5[8:1],,4,,2-5[8:1],
,1/2,,7-1[8:1],,5,,3-8[8:1],
,3/5,,7-1[8:1],,5,,3-8[8:1],
,5/3,,6-4[8:1],,8,,1>4[8:1],
,1/8,,6-4[8:1],,8,,1>4[8:1],
,1/8,,7-2[8:1],,3,,4>1[8:1],
,4/5,,7-2[8:1],,3,,4>1[8:1],
4,4/5,,6h[4:1],,8,,2-5[8:1],
8,2,,6h[4:1],,8,,2>5[8:1],
8,2,,7h[4:1],,5,,3-8[8:1],
5,3,,7h[4:1],,5,,3>8[8:1],
5,3,,7-4[8:1],,1,,2h[8:1],
1,8/3,,7<4[8:1],,1,,2h[8:1],
1,7/3,,6-1[8:1],,4,,3h[8:1],
4,5/2,,6<1[8:1],,4,,3h[8:1],
4,2/6,,7-4[8:1],,7/1,,2-5[8:1],
,8/2,,6-1[8:1],,6/4,,3-8[8:1],
,5/3,,6<1[4:1],,1>4[4:1],,4<7[4:1],
,7,,1,1,8/2,{4}7b/3b,
{8}6-4[8:1],4-7[8:1],{4}6,{8}2-8[8:1],8-3[8:1],{4}2,
{8}6-4[8:1],4-7[8:1],{4}6,{8}2-8[8:1],8-4[8:1],{4}2,
{8}6,6,{4}5/7h[4:1],{8}8,6/1pp4[8:3],,5,
5,6,{4}7-4[8:1]*V51[4:1],{8}7,,,8,
2,6,{4}4h[4:1],{8}2,1/3,{4}2/8h[4:1],
{8}6,7/5,{4}6/4h[4:1],{8}2-5[8:1],1,{4}8/2,
{8}6-1[8:1],5,{4}6/4,{8}2,1/3,{4}4/8-4[8:1],
8/2<7[8:1],2b/5b-1[8:1],5b-7[8:1]*-3[8:1],5b,
{8}8/2,7/3,{4}6/4,{8}2-4[8:1],4-1[8:1],{4}2,
{8}6-8[8:1],8-5[8:1],{4}6,{8}2-4[8:1],4-8[8:1],{4}2,
{8}6,6,{4}1/7qq3[8:3],{8}2,2,,1-5[8:1],
,6/1,{4}8V63[4:1],{8}8/4,2,{4}1-3[8:1],
5/1,7<2[8:5],{8},1,1h[4:1],,,1,1h[8:1],8,,
2-6[8:1],,6-2[8:1],
,7,,8V64[16:3],,3,{4}1v3[16:3],
{8}5,7,,8-6[8:1],8,8/5,,4-8[8:1],
4,4/5,,7V51[4:1],,7/8,{4}2>5[8:1],
8/2,1h[4:1],{8}5b,7b/3b,,,,,,3<6[8:1],
,6,{4}7-4[8:1],
{8}4,3,{4}2>5[8:1],{8}6,7,{4}8<5[8:1],
{8}4,3,2,1-4[4:1],,4-8[4:1],,8-5[4:1],
,5<4[2:1],,,,,,8b,
E
