&title=ネヴァモア
&artist=sasalasa
&first=0
&des=Tail_R
&lv_5=13
&inote_5=(155)
{1},
{16}2h[16:3],,,E5,,,6h[16:3],,,E5,,,
{16}2h[16:3],,,E5,,,6h[8:1],,4,5,4,,
{16}3h[16:3],,,E1,,,7h[16:3],,,E1,,,
{16}3h[16:3],,,E1,,,6h[16:3]/8,1,2,3,4,,
{16}7h[16:3],,,E6,,,3h[16:3],,,E6,,,
{16}7h[16:3],,,E6,,,3h[8:1],,5,4,5,,
{16}6h[16:3],,,8h[16:3],,,2h[8:1],,,4,5,4,
{16}5bqq3[4:1]*pp7[4:1],,,,,,,,,,,,
{8}3/4<8[4:1],3,2,2,1,1,8/2V41[4:1],8,
{8}7,7,6,6,5h[8:1]/1,3,6h[8:1]/2,4,
{8}7h[8:1]/5,3,8h[8:1]/4,2,{24}3,4,5,6h[8:1],,,2,3,4,5h[8:1],,,
{8}1>5[4:1],1,5,5,6,6,7V16[4:1]/5,5,
{8}4,4,3,3,2h[8:1]/4,6,3h[8:1]/5,7,
{8}1h[8:1]/8,6,4h[8:1]/5,7,{24}8,7,6,5h[8:1],,,7,6,5,4h[8:1],,,
{16}8p4[8:1],,,,8/4,,3-6[8:1],,6,,6,,
{16}7v4[8:1],,,,7/4,,3^8[8:1],,5,,5,,
{16}6-2[8:1],,,,6/2,,1-4[8:1],,6,,6,,
{16}5^8[8:1],,,,{24}8,1,2,3h[8:1],,,8,7,6,5h[8:1],,,
{16}4-8[8:1],,,5,4,,7^2[8:1],,2,,2,,
{16}3v8[8:1],,,4,3,,7p3[8:1],,1,,1,,
{16}2-6[8:1],,,1,2,,8-4[8:1],,4,,4,,
{4}3bpp5[4:1]*>6[4:1],,,
{8}2b^5[8:1]/6b^1[8:1],,2/6,,8h[8:1]/4,3,2h[8:1]/6,5,
{8}3V15[4:1]/4,,5,6,7-4[8:1],8,1^6[8:1],2,
{8}3-8[8:1],4,5-1[8:1],6,7-3[8:1]*-4[8:1],,,,
{8}2-8[12:1],8-3[8:1],7,7,6-4[12:1],4-7[8:1],3,3,
{8}2-8[12:1],8-3[8:1],6,6,5^8[8:1],,5/4,3-6[8:1],
{8},6/3,7v4[8:1],,{16}7/4,3,2,1,5,6,7,8,
{16}1bx-5[8:1]/4b-2[8:1],,,,1/4,,,,{8}4h[8:1]/6,7,8h[8:1]/1,2,
{8}6V84[4:1]/3,,4,3,2-5[8:1],1,8^3[8:1],7,
{8}6-1[8:1],5,4-8[8:1],3,2-6[8:1]*-5[8:1],,,,
{16}7-4[8:1]/4,,,1,1-5[8:1],,2,,6pp3[8:3]/1,,,,4,,,3,
{16},,2h[4:1],,,,4,,3-7[8:1]/5,,3,,5-8[8:1],,5,,
{16}1-4[8:1],,1,,7,,7h[8:1],,5,6,4,7,3,6,2,7,
{4}1b>8[4:3],,,6hx[8:3],
{16},,1,2,3h[8:1],,4,,5/6q7[32:9],,,,,,2,3,
{16}4h[8:1],,8,,6h[4:1],,E8,,4h[4:1],,E8,,6h[4:1],,E8,,
{8}1,1x-5[8:1],,5,6,7,8/2V48[4:1],,
{16},,7,6,5h[4:1],,1,,3p6[4:1],,,,,,7^2[4:1],,
{16},,2,3,4hx[8:1],,,4hx[8:1],,,4x/5x-1[8:1],,,,,,
{16}2,,3/4,,1,,4/5,,8,,5/6,,7,,4/5,,
{16}6,5,6,5,7h[8:1],,4,4,5,,4/6,,2,4,3h[8:1],,
{16}8,,7/5,,6h[4:1],,5,,{24}2,3,4,5h[8:1],,,1,2,3,4h[8:1],,,
{16}8^3[8:1],,7,7,,6,6,,5-1[8:1],,4,,3,,2,,
{8}2/8,3,1/7,6,{16}2,1,2,1,3,8,3,8,
{16}4,5,4,5,8,7,8,7,{24}1bx,2,3,4,,,8bx,1/7,2/6,3/5,,,
{2},
{8}6h[8:1]/5qq1[1:1],,,6h[8:1],,,6h[8:1],,
{8},6h[8:1],,,6h[8:1]/2V83-5[1:1],,,6h[8:1],
{8},,6h[8:1],,,6h[8:1],,,
{8}3V15[4:1],1,,,6V84[4:1],8,,,
{8}3V15[4:1],1,,,6^3[8:1],,2,2-5[8:1],
{8},8,8-4[8:1],,3,3^6[8:1],,,
{8}8qq4[1:1],,,4h[8:1],,,3h[8:1],,
{8},2h[8:1],,,1h[8:1]/5V38-2[1:1],,,8h[8:1],
{8},,7h[8:1],,,6h[8:1],,,
{16}5^8[8:1]/4,,,2,,,3,,4h[4:1],,,,1-6[8:1],,,2,
{16},,3,,4h[4:1],,6,,6-4[32:3],,,,3,,3,,
{16}2,,2,,1,5,1,5,2,6,2,6,3,7,3,7,
{8}4bx^1b[8:1]/8bx^5b[8:1],,8/4,,2h[8:1]/6,4,3h[8:1]/5,7,
{8}1V74[4:1]/8,,1/3,3,2-5b[8:1],1,8^3[8:1]/2,7,
{8}6v1b[8:1]/8,5,4^7[8:1]/6,3,2w6b[8:1]/4,,2,,
{16}8-4b[8:1],,4-7b[8:1],,3,,3,,1-5b[8:1],,5-2b[8:1],,6,,6,,
{16}8-4b[8:1],,4-7b[8:1],,2,,2,,1h[8:1],,7,5,6h[8:1],,1-5[8:1],,
{8}5,6,7-4b[8:1],7,{16}4,3,2,1,{16}4,5,6,7,
{8}4bx-1b[8:1]/8bx-5b[8:1],,8/4,,7h[8:1]/3,5,6h[8:1]/4,2,
{8}8>5b[4:1]/1,,8/6,6,7-4b[8:1],8,1^6b[8:1]/7,2,
{8}3v8b[8:1]/1,4,5^2b[8:1]/3,6,7w3b[8:1]/5,,7,,
{16}2/8,,3-1b[32:3],5,4,,3/5,,7h[8:1],,8,,6/5,,1-5b[8:1],8,
{16}2,,1/5,,6,,7-3b[8:1]/5,,3-5b[32:3],,7,,1,,1,,
{16}2/8,,2/8,,3,4,2,7,5,6,1,8,2,5,4,6,
{16}5bx/7bx,,2/1,2,6^3b[8:1],,6,,3,,2,,
{16}1/8,,5/6,6,2-5b[8:1],,2,,5,,6,,
{16}7/8,,4/5,4,8-4b[8:1],,8,,4,,3,,
{16}2/1,,2,,{24}2,3,4,5/6,,,7,6,5,4/3,,,
{16}2/1,,7/8,7,3-6b[8:1],,3,,6,,7,,
{16}8/1,,4/3,3,7v4b[8:1],,7,,4,,3,,
{16}2/1,,5/4,5,1q5b[8:1],,1,,5,,6,,
{16}7/8,,7,,{24}7,6,5,4/3,,,2,3,4,5/6,,,
