&title=死んじゃった
&artist=ゐろは苹果
&first=0.578
&des_1=lhg
&des_2=lhg
&des_3=lhg
&des_4=lhg
&des_5=lhg
&lv_5=13+
&des_6=lhg
&des_7=lhg
&des=lhg
&inote_5=(173){4}5/4h[16:3],4h[8:1],3h[8:1],2h[8:1],
4/5h[16:3],4/5h[8:1],6h[8:1],7h[8:1],
5/3h[16:3],5/3h[8:1],2h[8:1],1h[8:1],
{2}2h[8:3]/6h[8:3],{8}5/2,4b/8,2/5b,6b/4,
{16}4,8,3,7,{8}2h[8:1],6,{4}7h[8:1]/1-5[8:1],1/8,
{16}7,4,6,3,{8}5h[8:1],2,{4}1h[8:1]/4-8[8:1],4/2,
{16}7,1,6,2,{8}5h[8:1],3,{4}6h[8:1]/4-8[8:1],4,
{16}7,8,6,1,{8}5h[8:1],2,{4}2h[8:1]/4-8[8:1],4/1,
{16}3,7,3,7,2,6,{8}2,{4}5h[8:1]/1-5[8:1],1/6h[8:1],
{16}8,4,8,4,7,3,{8}7,{4}3h[8:1]/6-2[8:1],6/4h[8:1],
{16}1,3,8,2,7,1,{8}6,{4}5h[8:1]/8-4[8:1],8/5h[8:1],
{16}6,4,7,3,8,3,7,3,{8}6/2,7,{4}3/8>6[0.3468##2.3724],
(132){2}1h[4:1],(115){4}8,(130)7,
(125)6<3[0.48##1.9133],(122),(125)5,4,
(130){2}3<2[0.4615##1.8013],{4}4,3,
(144){2}2<3[0.4167##1.7459],{4}1,2,
(121)3<3[0.4959##1.8752],(114),,(150)4,
(142)3>4[0.4225##2.0547],(148)2,(116),(106),
4>6[0.566##2.0801],3,(115)4,(118)5,
(124)6>7[0.4839##2.0524],(113)4,(114)5,6,
(128)7>5[0.4688##1.7522],,(130)7,(138)6,
(155)5<4[0.3871##1.8586],(154)7,(128)6,(122)5,
(118)4<2[0.5085##1.8468],(128)3,(130)4,(134)3,
(128)2<4[0.4688##1.9598],(126)5,(122)2,3,
(120)4>6[0.5##1.6699],(145)3,4,5,
(140)6<3[0.4286##1.8479],(134)7,5,(126)4,
3<7[0.4762##1.6864],2,1,(162),
(165)4,4-2[12:1],{16}4bx-6[12:1],,,4bx-8[0.3636##0.1515],,,{8}4bx,
{4}7h[8:1],{8}6/2,3,2-8[8:1],4,{4}5/2,
{8}7h[4:1],6,5,4,{4}3-5[8:1]/7-5[8:1],7/3,
{8}6,{16}6,5,{8}7,8,1/7,2,3/5-2[8:1],6,
{4}5/6-1[8:1],6/5<3[8:3],{2}5,
{8}6,{16}6,5,{8}7,4,3/5,2,1/7,6,
5h[8:3],4,3,2,{4}1-4[8:1]/6-1[8:1],1/6,
{8}3,{16}3,1,{8}3,8/4,{16}7,5,6,4,{8}5h[2:1],{16}3,2,
{2}1h[4:1],2-5[8:1]/6-1[8:1],
{16}4,8,4,8,3,7,2,6,{8}1-5[8:1],2,{4}6/1,
{16}4/8,3,2,1,7,6,5,4,{8}1-5[8:1],5,{4}6/1,
{16}7,4,7,4,6,3,5,2,{8}4-7[8:1],1,{4}4/2,
{16}6,5,4,3,2,1,8,7,{8}6/4-7[8:1],5/3-8[8:1],{4}4/2,
{16}5,4,3,2,1-4[8:1],8,7,6,{8}1/5-8[8:1],6,5/3,2,
{16}1,8,7,6,5-8[8:1],4,3,2,{8}5/1-5[8:1],2,1/6,7,
{16}8,1,2,3,4-1[8:1],5,6,7,{8}4/8-5[8:1],7,8/4,3,
{16}2,1,7,6,3,2,8,7,{8}6/4,3/5,1/8,3/6,
4h[8:1],{16}5,5,{8}4h[8:1],5,4h[8:1],6,4h[8:1],5,
{4}4-1[8:1],{8}5/4,5,{4}5/4<2[4:1],5/4,
{8}5h[8:1],4,5h[8:1],{16}4,4,{8}5h[8:1],3,{4}6h[8:1]/2h[8:1],
{8},,,,,1b/8b,2b/4b,7b/5b,
(138){16}4/6h[4:1],,,,,,,1,{64}6h[4:1],,,,,,,,,2,,,,,,,,,,,,,,3,,,,,,,,,(140){4}6h[4:1],
3,{64}2/6h[4:1],,,,,,,,,,,,,1,,,,,,,,,,,,,,,,,,,(144){8}5h[4:1],
,,8,{64}5h[4:1],,,,,,,1,,,,,,,,,,,,,{16}2,{64},,,,,,,,(150)5h[4:1],
{4},{16},,{32},{64}8,,,,,(152)5h[4:1],,,,,,,,,1,,,,,,,,,,,,,,,,,,1h[16:1],,,,,(138)5h[4:1],
{4},{16},,,{32},{64}5h[4:1],,,,,,,,,{8}2,{64},,,,,3,,,,,,,,,,,{32}5h[#0.4347839],
3h[64:3],,,{8}3h[64:3],(136){4},(156)5h[#0.384613],(162)2,
{32}4h[#0.370369],1h[96:17],,,,,,,(160){4}1h[24:5],(136)8/4h[#0.4411774],(132){32},,,,,7,,,(136){4}4h[#0.4411774],
(140),(146)5h[#0.4109573],(140){8},6,
{4}3h[#0.4285736],(134){16},7,{32},,,,(130)3h[#0.4615402],8,,,,,,,(126){8}8h[12:1],8h[12:1],
(110){64}3h[#0.5454559],,,,,,,,,,,,,,,8,(114){32},,,,,7h[#0.1973648],{64},,,,(116)3h[#0.5172424],,,7h[16:1],,,,,,,,,,,{32}6,(118){4},
(128)2h[#0.46875],(132){64},,,,,,,,,6,,,,,,,(108){8}3h[#0.5555573],5,(110){32},6,{64},,,,,,,,,,,,(108)4h[#0.5555573],
,,,,,,,,,,,,6,,,(126){32},,,,,7,,,4h[#0.4761887],,,8h[#0.4592514],{64},,,,,,,,(116),,,,,,,8,,,,,,,,,3h[4:1],
{4},{16},,,{64}8h[#0.3747635],,,(108){32}3h[#0.5555573],,,,,,,7,(100){8},5h[64:7],
(108){4}2h[#0.5555573]/5h[8:1],(114),(100){32}2h[#0.5999985]/4h[64:11],,,,,,,4h[#0.1515274],(98){64},,,,,,,5h[#0.5787582],,,,,,,,,(80)1h[#0.75],
,,,,,,5,,,,,,,,,(77){32},,,5h[#0.4870148],{64},,,,,,,,(75)1h[#0.8000031],5,,,,,,,,,,,,,,,(76){4},
{32}3b,,,4,,,,5,,,,,{8}7-2[8:23],,,,,{1}8b,
{32},1b,
E
