&title=Love's Theme of BADASS ~バッド・アス 愛のテーマ~
&artist=Hommarju
&first=0
&des=圣诞老阴比Shangle!
&wholebpm=202
&lv_7=14+?
&inote_7=(202)
{1},
{2},{4},{16},
{32}2b,Cf/B2,{16},{32}7b,B7/Cf,{16},{32}1b,B1/Cf,{16},{32}8b,B8/Cf,{16},
{32}2b,Cf/B2,{16},{32}7b,Cf/B7,{16},{32}1b,,B1f/Cf/B5f,,{16},{4},
{1},
{4}Chf[8:13]/1b-4b[8:1],1b,1b-7b[8:1],1b,1b-4b[8:1],1b,1b-7b[8:1],1b,
{4}1b-4b[8:1],1b,1b-7b[8:1],1b,1b-4b[8:1],1b,1b-7b[8:1]/6xh[8:1],1b/6xh[8:1],
{4}Chf[8:13]/1b-4b[8:1],1b,1b-7b[8:1],1b,1b-4b[8:1],1b,1b-7b[8:1],1b,
{4}1b-4b[8:1],1b,1b-7b[8:1],1b,1b-4b[8:1],1b,1b-7b[8:1]/6xh[8:1],1b/6xh[8:1],
{8}1b-3b[8:1]/5b,5x,5x/1b,5x,1b-7b[8:1]/5x,5x,1b/5x,5x,1b-3b[8:1]/5x,5x,5x/1b,5x,1b-7b[8:1]/5x,5x,1b/5x,5x,1b-3b[8:1]/5x,5x,5x/1b,5x,1b-7b[8:1]/5x,5x,1b/5x,5x,1b-3b[8:1]/5x,5x,5x/1b,5x,1b-7b[8:1]/5x,5x,1b/5x,5x,
{8}1b-5b[8:1]/6b,6x,6x/1b,6x,1b-7b[8:1]/6x,6x,1b/6x,6x,1b-5b[8:1]/6x,6x,6x/1b,6x,1b-7b[8:1]/6x,6x,1b/6x,6x,1b-5b[8:1]/6x,6x,6x/1b,6x,1b-7b[8:1]/6x,6x,1b/6x,6x,1b-5b[8:1]/6x,6x,6x/1b,6x,1b-7b[8:1]/6x,6x,1b/6x,6x,
{4}8hx[8:1]/1b-5b[8:1],8hx[8:1]/1b-3b[8:1],8hx[8:1]/1b-5b[8:1],8hx[8:1]/1b-3b[8:1],
8hx[8:1]/1b-5b[8:1],8hx[8:1]/1b-3b[8:1],8hx[8:1]/1b-5b[8:1],8hx[8:1]/1b-3b[8:1],8hx[8:1]/1b-5b[8:1],8hx[8:1]/1b-3b[8:1],8hx[8:1]/1b-5b[8:1],8hx[8:1]/1b-3b[8:1],8hx[8:1]/1b-5b[8:1],8hx[8:1]/1b-3b[8:1],8hx[8:1]/1b-5b[8:1],8hx[8:1]/1b-7b[8:1],
6hx[8:1]/1b-5b[8:1],6hx[8:1]/1b-7b[8:1],6hx[8:1]/1b-5b[8:1],6hx[8:1]/1b-7b[8:1],
6hx[8:1]/1b-5b[8:1],6hx[8:1]/1b-7b[8:1],6hx[8:1]/1b-5b[8:1],6hx[8:1]/1b-7b[8:1],6hx[8:1]/1b-5b[8:1],6hx[8:1]/1b-7b[8:1],6hx[8:1]/1b-5b[8:1],6hx[8:1]/1b-7b[8:1],6hx[8:1]/1b-5b[8:1],6hx[8:1]/1b-7b[8:1],6hx[8:1]/1b-5b[8:1],6hx[8:1]/1b-7b[8:1],
5hx[8:1]/1b-3b[8:1],5hx[8:1]/1b-7b[8:1],5hx[8:1]/1b-3b[8:1],5hx[8:1]/1b-7b[8:1],
5hx[8:1]/1b-3b[8:1],5hx[8:1]/1b-7b[8:1],5hx[8:1]/1b-3b[8:1],5hx[8:1]/1b-7b[8:1],5hx[8:1]/1b-3b[8:1],5hx[8:1]/1b-7b[8:1],5hx[8:1]/1b-3b[8:1],5hx[8:1]/1b-7b[8:1],5hx[8:1]/1b-3b[8:1],5hx[8:1]/1b-7b[8:1],5hx[8:1]/1b-3b[8:1],5hx[8:1]/1b-7b[8:1],
6hx[8:1]/1b-5b[8:1],6hx[8:1]/1b-7b[8:1],6hx[8:1]/1b-5b[8:1],6hx[8:1]/1b-7b[8:1],
6hx[8:1]/1b-5b[8:1],6hx[8:1]/1b-7b[8:1],6hx[8:1]/1b-5b[8:1],6hx[8:1]/1b-7b[8:1],6hx[8:1]/1b-5b[8:1],6hx[8:1]/1b-7b[8:1],6hx[8:1]/1b-5b[8:1],6hx[8:1]/1b-7b[8:1],6hx[8:1]/1b-5b[8:1],6hx[8:1]/1b-7b[8:1],6hx[8:1]/1b-5b[8:1],6hx[8:1]/1b-7b[8:1],
5hx[8:1]/1b>3b[8:1],5hx[8:1]/1b-7b[8:1],5hx[8:1]/1b>3b[8:1],5hx[8:1]/1b-7b[8:1],
5hx[8:1]/1b>3b[8:1],5hx[8:1]/1b-7b[8:1],5hx[8:1]/1b>3b[8:1],5hx[8:1]/1b-6b[8:1],
5hx[8:1]/1b>3b[8:1],5hx[8:1]/1b-6b[8:1],5hx[8:1]/1b>3b[8:1],5hx[8:1]/1b-6b[8:1],
5hx[8:1]/1b>3b[8:1],5hx[8:1]/1b-6b[8:1],5hx[8:1]/1b>3b[8:1],5hx[8:1]/1b-5b[8:1],
7hx[8:1]/1b-3b[8:1],7hx[8:1]/1b-5b[8:1],7hx[8:1]/1b-3b[8:1],7hx[8:1]/1b-5b[8:1],
7hx[8:1]/1b-3b[8:1],7hx[8:1]/1b-5b[8:1],7hx[8:1]/1b-3b[8:1],7hx[8:1]/1b-6b[8:1],
7hx[8:1]/1b-3b[8:1],7hx[8:1]/1b-6b[8:1],7hx[8:1]/1b-3b[8:1],7hx[8:1]/1b-6b[8:1],
7hx[8:1]/1b-3b[8:1],7hx[8:1]/1b-6b[8:1],7hx[8:1]/1b-3b[8:1],7hx[8:1]/1b-7b[8:1],
6hx[8:1]/1b-4b[8:1],6hx[8:1]/1b-7b[8:1],6hx[8:1]/1b-4b[8:1],6hx[8:1]/1b-7b[8:1],
6hx[8:1]/1b-4b[8:1],6hx[8:1]/1b-7b[8:1],6hx[8:1]/1b-4b[8:1],6hx[8:1]/1b-5b[8:1],
6hx[8:1]/1b-3b[8:1],6hx[8:1]/1b-5b[8:1],6hx[8:1]/1b-3b[8:1],6hx[8:1]/1b-5b[8:1],
6hx[8:1]/1b-3b[8:1],6hx[8:1]/1b-5b[8:1],6hx[8:1]/1b-3b[8:1],6hx[8:1]/1b-6b[8:1],
5hx[8:1]/1b-4b[8:1],5hx[8:1]/1b-6b[8:1],5hx[8:1]/1b-4b[8:1],5hx[8:1]/1b-6b[8:1],
5hx[8:1]/1b-4b[8:1],5hx[8:1]/1b-6b[8:1],5hx[8:1]/1b-4b[8:1],5hx[8:1]/1b<6b[8:1],
5hx[8:1]/1b>4b[8:1],5hx[8:1]/1b<6b[8:1],5hx[8:1]/1b>4b[8:1],5hx[8:1]/1b<6b[8:1]*-6b[8:1],
1b-4b[8:1]*>4b[8:1]/E8f/E1/E7,1bw5b[8:1]/E3f/E2/E4,1b/B1/B5/Cf/B6/B4,,
{4}1x/7x<3b[4:1],3xb>7b[4:1],{2}E2f/B1/B2,{4}8x/2x>6b[4:1],6xb<2b[4:1],{2}E8f/B8/B7,
{8}3x/4x,{4}2x/5x,{8}6x/5x,{4}7x/4x,8x/1x-5b[8:1],{4}1b/7-3b[8:1],7b/1w5b[8:1],{32},,B1/Cf/B5,,{8},,,
{4}E4/B4/B5/E6,Chf[4:1],{2}E1/B1/B2/E3/E7/B7/B8,{4}E4/B4/B5/E6,Chf[4:1],{2}E1/B1/B2/E3/E7/B7/B8,
{2}3x-1b[8:1]/4x-8b[8:1],6x-8b[8:1]/5x-1b[8:1],{4}E4/B4/B5/E6,Chf[4:1],{2}E1/B1/B2/E3/E7/B7/B8,
{4}2x/6x,1v4b[8:1]/7v4b[8:1],1x/7x,3/5,{4}2x/6x,1v4b[8:1]/7v4b[8:1],1x/7x,3/5,
{2}8b-5b[8:1]*q5b[8:1],1b-4b[8:1]*>4b[8:1],{4}6b/7b,3b/2b,{2}1b/8b-5b[8:1]*z4b[8:1],
{4}2xb-8[8:1]*-4[8:1],2xb-6b[8:1],{2}B2/B6/Cf,{4}7xb-1b[8:1]*-5b[8:1],7xb-3b[8:1],{2}B7/B3/Cf,
{2}4-2[8:1]b/5-1b[8:1],5-7b[8:1]/4-8b[8:1],{4}4qq1b[2:1]/5pp8b[2:1],Cf/B8/B1/B5/B4,,,
{1}1bhx[4:7]/8bhx[4:7],,
{4}8bhx[8:1]/1b-5b[8:1],8bhx[8:1]/1b-3b[8:1]/B5f,8bhx[8:1]/1b-5b[8:1]/E3f,8bhx[8:1]/1b-3b[8:1]/B5f,
8bhx[8:1]/1b-5b[8:1]/E3f,8bhx[8:1]/1b-3b[8:1]/B5f,8bhx[8:1]/1b-5b[8:1]/E3f,8bhx[8:1]/1b-3b[8:1]/B5f,
8bhx[8:1]/1b-5b[8:1]/E3f,8bhx[8:1]/1b-3b[8:1]/B5f,8bhx[8:1]/1b-5b[8:1]/E3f,8bhx[8:1]/1b-3b[8:1]/B5f,
8bhx[8:1]/1b-5b[8:1]/E3f,8bhx[8:1]/1b-3b[8:1]/B5f,8bhx[8:1]/1b-5b[8:1]/E3f,8bhx[8:1]/1b-7b[8:1]/B5f,
6bhx[8:1]/1b-5b[8:1]/E8f,6bhx[8:1]/1b-7b[8:1]/B5f,6bhx[8:1]/1b-5b[8:1]/E8f,6bhx[8:1]/1b-7b[8:1]/B5f,
6bhx[8:1]/1b-5b[8:1]/E8f,6bhx[8:1]/1b<7b[8:1]/B5f,6bhx[8:1]/1b>3b[8:1]/E8f,6bhx[8:1]/1b-7b[8:1]/E3f,
5bhx[8:1]/1b-3b[8:1]/E8f,5bhx[8:1]/1b-7b[8:1]/E3f,5bhx[8:1]/1b-3b[8:1]/E8f,5bhx[8:1]/1b-7b[8:1]/E3f,
5bhx[8:1]/1b-3b[8:1]/E8f,5bhx[8:1]/1b-7b[8:1]/E3f,6bhx[8:1]/1b-5b[8:1]/E8f,6bhx[8:1]/1b-3b[8:1]/B5f,
8bhx[8:1]/1b-5b[8:1]/E3f,8bhx[8:1]/1b-3b[8:1]/B5f,8bhx[8:1]/1b-5b[8:1]/E3f,8bhx[8:1]/1b-3b[8:1]/B5f,
8bhx[8:1]/1b-5b[8:1]/E3f,8bhx[8:1]/1b-3b[8:1]/B5f,8bhx[8:1]/1b-5b[8:1]/E3f,8bhx[8:1]/1b-7b[8:1]/B5f,
6bhx[8:1]/1b-5b[8:1]/E8f,6bhx[8:1]/1b-7b[8:1]/B5f,6bhx[8:1]/1b-5b[8:1]/E8f,6bhx[8:1]/1b-7b[8:1]/B5f,
6bhx[8:1]/1b-5b[8:1]/E8f,6bhx[8:1]/1b<7b[8:1]/B5f,6bhx[8:1]/1b>3b[8:1]/E8f,6bhx[8:1]/1b-7b[8:1]/E3f,
5bhx[8:1]/1b-3b[8:1]/E8f,5bhx[8:1]/1b-7b[8:1]/E3f,5bhx[8:1]/1b-3b[8:1]/E8f,5bhx[8:1]/1b-7b[8:1]/E3f,
5bhx[8:1]/1b-3b[8:1]/E8f,5bhx[8:1]/1b-7b[8:1]/E3f,6bhx[8:1]/1b-5b[8:1]/E8f,6bhx[8:1]/1b-3b[8:1]/B5f,
8bhx[8:1]/1b-5b[8:1]/E3f,8bhx[8:1]/1b-3b[8:1]/B5f,8bhx[8:1]/1b-5b[8:1]/E3f,8bhx[8:1]/1b-3b[8:1]/B5f,
8bhx[8:1]/1b-5b[8:1]/E3f,8bhx[8:1]/1b-3b[8:1]/B5f,8bhx[8:1]/1b-5b[8:1]/E3f,8bhx[8:1]/1b-7b[8:1]/B5f,
6bhx[8:1]/1b-5b[8:1]/E8f,6bhx[8:1]/1b-7b[8:1]/B5f,6bhx[8:1]/1b-5b[8:1]/E8f,6bhx[8:1]/1b-7b[8:1]/B5f,
6bhx[8:1]/1b-5b[8:1]/E8f,6bhx[8:1]/1b<7b[8:1]/B5f,6bhx[8:1]/1b>3b[8:1]/E8f,6bhx[8:1]/1b-7b[8:1]/E3f,
5bhx[8:1]/1b-3b[8:1]/E8f,5bhx[8:1]/1b-7b[8:1]/E3f,5bhx[8:1]/1b-3b[8:1]/E8f,5bhx[8:1]/1b-7b[8:1]/E3f,
5bhx[8:1]/1b-3b[8:1]/E8f,5bhx[8:1]/1b-7b[8:1]/E3f,6bhx[8:1]/1b-5b[8:1]/E8f,6bhx[8:1]/1b-3b[8:1]/B5f,
8bhx[8:1]/1b-5b[8:1]/E3f,8bhx[8:1]/1b-3b[8:1]/B5f,8bhx[8:1]/1b-5b[8:1]/E3f,8bhx[8:1]/1b-3b[8:1]/B5f,
8bhx[8:1]/1b-5b[8:1]/E3f,8bhx[8:1]/1b-3b[8:1]/B5f,8bhx[8:1]/1b-5b[8:1]/E3f,8bhx[8:1]/1b-7b[8:1]/B5f,
6bhx[8:1]/1b-5b[8:1]/E8f,6bhx[8:1]/1b-7b[8:1]/B5f,6bhx[8:1]/1b-5b[8:1]/E8f,6bhx[8:1]/1b/B5f,
{4}8b-4b[8:1]/7b-3b[8:1],Cf/E4,1b-5b[8:1]/2b-6b[8:1],Cf/E6,
{4}8hx[8:1]/1xb-5b[8:1],8hx[8:1]/1b-3b[8:1],8hx[8:1]/1b-5b[8:1],8hx[8:1]/1b-3b[8:1],
8hx[8:1]/1b-5b[8:1],8hx[8:1]/1b-3b[8:1],8hx[8:1]/1b-5b[8:1],8hx[8:1]/1b-3b[8:1],8hx[8:1]/1b-5b[8:1],8hx[8:1]/1b-3b[8:1],8hx[8:1]/1b-5b[8:1],8hx[8:1]/1b-3b[8:1],8hx[8:1]/1b-5b[8:1],8hx[8:1]/1b-3b[8:1],8hx[8:1]/1b-5b[8:1],8hx[8:1]/1b-7b[8:1],
6hx[8:1]/1b-5b[8:1],6hx[8:1]/1b-7b[8:1],6hx[8:1]/1b-5b[8:1],6hx[8:1]/1b-7b[8:1],
6hx[8:1]/1b-5b[8:1],6hx[8:1]/1b-7b[8:1],6hx[8:1]/1b-5b[8:1],6hx[8:1]/1b-7b[8:1],6hx[8:1]/1b-5b[8:1],6hx[8:1]/1b-7b[8:1],6hx[8:1]/1b-5b[8:1],6hx[8:1]/1b-7b[8:1],6hx[8:1]/1b-5b[8:1],6hx[8:1]/1b-7b[8:1],6hx[8:1]/1b-5b[8:1],6hx[8:1]/1b-7b[8:1],
5hx[8:1]/1b-3b[8:1],5hx[8:1]/1b-7b[8:1],5hx[8:1]/1b-3b[8:1],5hx[8:1]/1b-7b[8:1],
5hx[8:1]/1b-3b[8:1],5hx[8:1]/1b-7b[8:1],5hx[8:1]/1b-3b[8:1],5hx[8:1]/1b-7b[8:1],5hx[8:1]/1b-3b[8:1],5hx[8:1]/1b-7b[8:1],5hx[8:1]/1b-3b[8:1],5hx[8:1]/1b-7b[8:1],5hx[8:1]/1b-3b[8:1],5hx[8:1]/1b-7b[8:1],5hx[8:1]/1b-3b[8:1],5hx[8:1]/1b-7b[8:1],
6hx[8:1]/1b-5b[8:1],6hx[8:1]/1b-7b[8:1],6hx[8:1]/1b-5b[8:1],6hx[8:1]/1b-7b[8:1],
6hx[8:1]/1b-5b[8:1],6hx[8:1]/1b-7b[8:1],6hx[8:1]/1b-5b[8:1],6hx[8:1]/1b-7b[8:1],6hx[8:1]/1b-5b[8:1],6hx[8:1]/1b-7b[8:1],6hx[8:1]/1b,
{16},,
{24}6b/3b,2b,1b,
{24}8b,7b,6b,5b,4b,3b,2b,1b,8b,7b,6b,5b,4b,3b,2b,1b,8b,7b,6bw2b[8:1],5b,4b,3b,2b,1b,
{32},,Cf/A1/A2/A3/A4/A5/A6/A7/A8/D1/D2/D3/D4/D5/D6/D7/D8/E1/E2/E3/E4/E5/E6/E7/E8/B1/B2/B3/B4/B5/B6/B7/B8,,{1},,,,
E
