&title=FestA of PandemoniuM
&artist=山本真央樹 vs Masahiro "Godspeed" Aoki (feat. Dylan Reavey)
&first=0
&des=Guilty
&lv_5=14
&inote_5=(160)
{1},{4},
{16}
4,5,3/6,,
1,,7,5,
6,4,5,3,
Cf,,,,
3,,4,4,
3h[16:3],,,5,
,,6h[16:2],,
4,,,3h[16:3],
,,5,,
6h[16:4],,,,
7pp4[8:7],,7qq3[4:3],,
,,,,
,,,,
,,,,
,,,,
2x,,,,
2x,,,,
2x,,,,
2x,,,,
3,3,4,3,
,6,6,5,
6,,3,4,
3,3,,6,
5,6,6,,
2,3,4,7,
6,5,2,2,
1,2,,7,
7,8,7,,
2,1,2,2,
,7,8,7,
7,,1,1,
8,1,,,
1/8,2/7,3/6,4/5,
5x,6,7,8,
1/5,2/6,3/7,4/8,
1-5[8:1],,,,
2-4[8:1]/1,,,,
8/2,7,6h[4:1],,
,,
1,2,3,5,
6,7,2,3,
4,8b,,,
3b,,,6b,
,,,A4,
E5,E6,A6,E4,
B4,B6,E7,A3,
B3,B7,A7,E3,
E8,,
1x/2x,,,8x/7x,
,,6x/5x,,
,3x/4x,,,
2/7,,1,1,
1,4,3,7,
5,6,2bh[4:1],,
,,,,
8b-3[16:1],,,5b-1[16:1],
,,4b-7[16:1],,
,3b,,,
1bh[4:1],,,,
,,4,3,
5,2,7,5,
6,4,8,3,
6h[16:3],,,4-8[8:1],
,,3,,
,,1-5[8:1],,
,,2,,
,,8w4[8:1],,
,,8,,
,,,,
3,,,,
3h[16:3],,,5-1[8:1],
,,6,,
,,8-4[8:1],,
,,7,,
,,1w5[8:1],,
,,1,,
,,,,
6,,2,3,
4h[4:1],,5,,
6,,7h[4:1],,
,,1,,
,,2h[4:1],,
,,4,,
5,,6h[4:1],,
,,5x,,
,,4,3,
2h[4:1],,1,,
8,,7h[4:1],,
,,5,,
,,4h[4:1],,
,,6,,
7,,8,,
,,3,3,
4,4,2,2,
5-1[8:1],,6,,
7,,8,,
,,1-5[8:1],,
2,,3,,
,,4-8[8:1],,
5,,6,,
,,5-1[8:1],,
4,,3h[2:1],,
,,,,
,,4,,
,,,,
7,6,5>1[4:1],,
,,1<5[4:1],,
,,5p8[4:1],,
,,8<4[4:1]*>3[4:1],,
,,,,
,,,,
,,,,
,,,,
,,,,
3,,3,,
4,,6,,
,4,4,5,
3,,,,
{32}2,3,4,,6x,,,,
2,3,4,,6x,,,,
2,3,4,,6x,,,,
1,2,3,4,6x,7,8,1,
{16}4x,4,6,5,
6,6,2,4,
3,5,4,7,
5,6,6,,
4,3,2,1h[16:8],
,,3,,
,6,,5,
,,2,,
2,3,4,5,
,7,6,5,
4,,2,1,
8,5,6,3,
4,,7,6,
,2,3,,
,5/4,,5/4,
,6,,6,
7,8,1,,
3,2,1,8,
,,3,3,
4,2,2,5-8[8:1],
1,,,,
1x,,3,4,
,6,6,4,
7,7,
3-8[8:1],,,,
4,,6,5,
,2,2,4,
1,1,
6h[4:1],,,,
5,,3,3,
,7,,1,
,5,,3h[4:1],
,,,,
3,4,2,6,
5-1[8:1],,,,
5/4,,,,
2,6,4,6,
4,6,4,6,
8,5,3,5,
3,5,3,5,
1,4,7,4,
7,4,7,4,
2,6,4,6,
4,6,4,6,
3x,,3x,,
3/5,4/6,5/7,,
,2/5,3/6,4/7,
,,1/5,2/6,
3/7,,,8/5,
1/6,2/7,3,4,
5,1,8,7,
5,4,3,2,
1bqq5[2:1]/8b,,,,
,,,,
,,,,
,,,,
6-2[8:1],,,7,
,,8-4[8:1],,
,1,,,
2,,1x/7x,,
1,1,1,1,
1,1,1/8,,
,1/8,2/7,3/6,
4/5,3x/6x,2/7,,
1x-5[8:1],,,8,
,,6h[4:1],,
,,2,2,
6,3,3,5,
4,,6,6/5,
,3,3/4h[4:1],,
,,1,,
1,2,3,4,
6,,,6,
5,,7,6,
5,3,4,5,
8,7,6,5,
1b,,,1b,
8,,8,1,
7,,6,,
4,,2,,
8h[16:3],,,6,
,,4h[16:3],,
,2,,,
5h[16:3],,,E6/E5,
,,1h[16:3],,
,E1/E2,,,
3,3,4,2,
2,4,1,1,
8bhx[8:3]/2x,,,,
,,5h[258:1],8,
4h[258:1],6,5h[258:1],7,
8h[258:1],5,8h[258:1],6,
5h[258:1],8,4h[258:1],6,
5h[258:1],7,8h[258:1],5,
8h[258:1],6,5h[258:1],8,
4h[258:1],6,5h[258:1],7,
8bhx[8:2],,,,
4h[258:1],1,5h[258:1],3,
4h[258:1],2,1h[258:1],4,
1h[258:1],3,4h[258:1],1,
5h[258:1],3,4h[258:1],2,
1h[258:1],4,1h[258:1],3,
4h[258:1],1,5h[258:1],3,
4h[258:1],2,1x,,
3x/5x,4x/6x,5x/7x,,
,2/5,3/6,4/7,
,,1/5,2/6,
3/7,8/4,1/5,,
1x/5x,8x/4x,7x/3x,2x/6x,
1x/5x,,8/4,1/5,
2/6,3/7,4/8,1/5,
,3-8[210#7:1]/7-4[210#7:1],3x/7x,7x/3x,
{64}3bx/7bx,B3/B7,Cf,,,,,,,,,,,,,,
{16},,1/7,,
1^4[8:1]/8,,,1,
8/1,,6,,
7h[16:3]/5x,,,8,
8/7,,5hx[16:4],,
3-7[8:1],,2,,
3/1,,2,,
4b-8[8:1],,5,,
4qq8[8:3]/5h[4:1],,,,
4x,,,,
5,,6,,
7h[16:3]/1-5[8:1],,,1,
1x/6,,8b,,
8,,7,,
6,,5,,
4b/6,3,2,8b,
7,6,3b,2,
1,7b,6,5,
2b,3,4,6b,
7,8,1b,2,
3,5b,6,7,
4b,3,2,1b-5b[128#10:1]/8b-4b[128#10:1],
,,7b/2b,,
1b/8b,,,,
2b/7b,,,,
2h[16:3]/6,,,4,
3,,2/5,,
7h[16:3]/3,,,5,
6,,7/4,,
{64}A3,,
D4,,
A4,,
E3,B3,
B4,E5,
D2,,E2,,C,
E6,,D6,E1,B8,
B7,E7,
A8,,D8,,A7,,,,,,
{16}1bxw5[8:1],,,,
,,,,
2x,4x,1x,7x,
5x,6x,1,8,
7h[16:3]/2x,,,8,
8/7,,5hx[16:4],,
3-7[8:1],,2,,
3/1,,2,,
4b^1[8:1]*^7[8:1],,3/5,,
4,,,,
2x/6x,,,,
2-5[8:1],,1,,
8,,7-4[8:1],,
8,,1-5b[8:1],,
,,1bx,,
6,,2/8,,
2/8-4[210#7:1],,,8/3-1[210#7:1],
,,3/5-7[210#7:1],,
,5/4-8[210#7:1],,,
4/2-5[210#7:1],,,2/1-6[210#7:1],
,,1/3-8[210#7:1],,
,3/7x-4[210#7:1],,,
7/2-5[210#7:1],,,2/8-4[210#7:1],
,,1/8,,
1,,,1/7,
,,2/6,3/5,
4,,,,
2h[8:1],,5h[8:1],,
4h[16:3],,,7,
8,,3,,
4h[4:1]/5,,,,
5,,5/4,,
Cf,,,,
,,,,
,,,,
,,,,
4x,,,,
,,,,
5x,,,,
,,,,
3x,,,,
,,,,
6x,,,,
,,,,
2x,,,,
7x,,,,
{32}1x,,,,,,,,,,,,,,,D3/D2/D1/D8/D7/A2/A1/A8/A7/E3/E2/E1/E8/E7,
{1}Cf,
{16}
2/5,,3,,
4/6,,4,5,
,5,4,,
7/1,,1,,
2,5,4,5,
2,5,4,5,
2,5,4,5,
2,,6,,
5/3,,5,4,
,4,5,,
2/8,,8,,
7,4,5,4,
7,4,5,4,
7,4,5,4,
7h[4:1],,,,
{12}1,1,1,
3,3,3,
5,5,5,
{24}7,6,5,1,2,3,
7,6,5,1,2,3,
8,7,6,2,3,4,
8,7,6,2,3,4,
1x,2x,3x,7,6,5,
8x,7x,6x,1,2,3,
5,4x,5,4x,5,4x,{16}3x,5x,4x,6x,
2x,4x,5x,7x,
1bx-5[8:1],,1bx,,
{16}
1,,6,,
6,,6/4,,
6,,6/2,,
3/6,3,6,,
8/1,,8,2,
8/3,4,8/5,,
8/2,,8,1,
8,,8,,
2/4,,2,4,
2,,2,4,
2,1,2,5,
2,8,2,6,
4,5,4,2,
4,6,4,1,
4,7,4,8,
4,1,4,5,
3,3,5,6,
7,3,3,6,
7,8,3,3,
7,8,1,3,
3,8,8,2,
2,6,6,1,
1,4,5,6,
1,1,5,6,
7bh[4:1]/1b,,1,,
1x,,1x<4[8:1],2,
3,,1x,,
2,,3,,
{24}2x,1x,2,1,2,1,
3x,8x,3,8,3,8,
4x,7x,4,7,4,7,
5xs1[8:1],6x,5,6,5,6,
{16},,,,
,,,,
1,5,1,5,
3,7,3,7,
{24}4,3,2,1,,,
3,2,1,8,,,
2,1,8,7,,,
1,8,7,6,5,4,
{16}3/1b,,1,,
8,3,8,3,
6,1,6,1,
{24}6,3,5,{16}4,5,
4,6,4,7,
4,8,4,8,
{24}4,7,5,{16}6,,
{24}2,5,3,{16}4,,
{32}7,6,5,,3,,3,,
3,,,,8,7,6,5,
2,,2,,2,,,,
1,8/2,7/3,6/4,5,,,,
{16},,2h[4:1],,
4-8[8:1],,5h[4:1],,
4w8[8:1],,,,
,,,,
{32}2,3,4,,6,,6,,
6,,,,1,2,3,4,
7,,7,,7,,,,
8,1/7,2/6,3/5,4,,,,
{16},,{24}2,6,2,
6,2,6,1,7,1,
7,1,7,8b-4[8:1],,,
,,,,,,
{16},,3,,
3,5,,5,
3,5,{24}3,4,3,
5,4,5,3,4,3,
{16}6bx,6,5,7,
,3,3,4,
2,,5,4,
6,6,,4,
5,3,3,,
2/6,3/7,4/8,5/1,
,3/8,3,4,
2,,1/6,6,
5,7,2x,2,
7,7,,3/8,
2/8,1/8,,1/6,
1/7,1/8,,1,
1,8/1x,8,2/8x,
2,7/2x,7,3/7x,
3x,6,{32}2b,3,4,5x,
8b,7,6,5x,1b,2,3,4x,
7b,6,5,4x,2b,,2x,,
1x,,1x,,
8x,,1bhx[16:47]/7bh[16:47],
,,,
,,,,
,,,,
,,,,
,,,,
