&title=☆ビバノン☆
&artist=やかもち
&first=0.02
&des=結月ゆかり vs 紲星あかり
&lv_5=13+
&inote_5=(175)
{1},
{1},
{1},
{1}
{1},
{16},,,,,,,,,,4,5,3x/6x,,,,
{8}2-4b[8:1],,4,,7-5[8:1],7,,3h[4:1],
{8},4h[4:1],,5h[4:1],,6,6,,
{8}7-5[8:1],,5,,2-4b[8:1],2,,6h[4:1],
{8},5h[4:1],,4h[4:1],,3,3,,
{8}2-5b[8:1],,5,,7-4[8:1],7,,2h[4:1],
{8},4h[4:1],,5h[4:1],,7,7,,
{8}7-4[8:1],,4,,2-5b[8:1],2,,7h[4:1],
{8},5h[4:1],,4h[8:5],,3,2,1,
{4}1x>4[4:1],4qq5[8:3],5,6,
{4}8z4[4:1],4,1s5b[4:1],5,
{4}7^4[8:1],8v3[8:1],7^4b[8:1],8v3b[8:1],
{4}5x<4[2:1],,,C,
{4}4V28-6b[8:3],7,5,5h[4:1],
{4}3qq4[16:5],4,5pp4[16:5],4,
{4}3-1b[8:1],4-8[8:1]
,1-5b[8:1],8-6[8:1],
{4}4xw8b[4:1],,,3xpp2b[32:9],
{8}7h[2:1],,,1,2,3,4,5x^2[8:1],
{8},8x-4[8:1],,1x^6[8:1],,7x,,5h[4:1],
{8},4,4-7[8:1],,4x/2x,,3,4h[4:1],
{8},5,5-1b[8:1]*-2b[8:1],,5x,,7pp6[32:9],,
{8}3h[2:1],,,5,6,7,8,1x^6[8:1],
{8},4x-8[8:1],,5x^2[8:1],,3x,,1,
{8}2/8,3,4/5,3,2/8,7,5/6,7,
{16}3,4,2,6,5,7,1,8,Cf,,,,3x-8b[8:1],,2x,,
{8}3xb/4xb,,7h[4:1],6,5,4-8[8:1],3,2^5[8:1],
{8},7-3[8:1],,4,4xh[4:1],,6-1[8:1],7,
{8}6bx/5bx,,2h[4:1],3,4,5-1[8:1],6,7-4[8:1],
{8},2-8[32:3],2,6,6xh[4:1],,3-8b[8:1],2,
{8}3bx/4bx,,7h[4:1],6,5,4-8[8:1],3,2^5[8:1],
{8},6^1[8:1],,4-8[8:1],,4,5,{24}1x^6[8:1],2x,3x,
{8}4x,1xb,,{24}1x^6b[8:1],2x,3x,{8}4x,1bx,3,3h[4:1],
{8},4-1b[8:1],5-8[8:1],4,5bx,,2-5b[8:1],3,
{8}2bx/1bx,,7h[4:1],6,5,4-8[8:1],3,2^7[8:1],
{8},5-1[8:1],,3,3hx[4:1],,7-4[8:1],6,
{8}7bx/8bx,,2h[4:1],3,4,5-1[8:1],6,7^4[8:1],
{8},3-8b[8:1]*-7[8:1]/7,,3,,1/6h[4:1],2,3,
{8}4x-7[8:1]/5x,,6,6h[4:1],,8>4[16:3],7,6,
{8}5x-2b[8:1],,3,3h[4:1],,1<5[16:3],2,3,
{8}4x-8[8:1],,5,5h[4:1],,1V35[16:3],8,7,
{4}6b-1[8:1],4b-8[8:1]/6,5b^2b[8:1]*^8[8:1]/4,5b,
{8}2x/1x,3b/7,,5/6,3b/7,,2/1,3b/7,
{8},5/6,3b/7,,2-5[8:1]/1-6[8:1],,1/2,,
{8}3x/4x,2b/6,,8/7,2b/6,,3/4,2b/6,
{8},8/7,2b/6,,3-8[8:1]/4-7[8:1],,4/3,,
{8}2x/1x,3b/7,,5/6,3b/7,,2/1,3b/7,
{8},5/6,3b/7,,2-5[8:1]/1-6[8:1],,1/2,,
{8}3x/4x,2b/6,,8/7,2b/6,,4qq5b[8:5]/3,2b/6pp4[2:1],
{1},
{8}2-4[8:1],,5,,3-1[8:1],,4,,
{8}2-4[8:1],,5,,{16}6,,,4,5,,3,,
{8}3<5[8:1],,6,,2>4[8:1],,5,,
{8}7<4[8:1],,4,,{16}2h[16:3],,,1,3,,48,,
{8}7-5[8:1],,4,,6-8[8:1],,5,,
{8}7-5[8:1],,4,,{16}3,,,5,4,,6,,
{8}5v3>7[8:6],,,,,,,,
{8}6h[2:1],,,,{16}5,4,3,,6,,5,,
{16}2,4,3,4,2,,3,,5,,5,,5,3,6,4,
{4}7-4[8:1],1-6[8:1],2-4[8:1],5,
{16}7,5,6,5,7,,6,,4,,4,,4,6,3,5,
{4}2-5[8:1],8-3[8:1],7-5[8:1],4,
{16}2,5,3,4,2,,3,5,4,,6,,7,5,6,4,
{4}5-7[8:1],1-6[8:1]/5,2-4[8:1]/1,52,
{16}75,,64,,35,,24,,12,,38,,47,,65,,
{16}2,4,3,5,4,6,5,7,{24}2,3,4,5,6,7,{16}8bw4[12:1],,,,
{1}8<1[1:3],
{1},
{1},
{2},1h[128:1]/8h[128:1],
{8}2-4[8:1],2,5-7[8:1],5,1-3[8:1],1,8-6[8:1],8,
{8}4-2[8:1],4,7-5[8:1],7,1-3[8:1],1,4-6[8:1],4,
{8}2-5[8:1],2,1-6[8:1],1,3-8[8:1],3,4,4,
{8}15,26,37,48,{16}2,6,3,5,1-5[12:1],,,,
{4}1,7x-3V58b[8:12],,,
{4},,,,
{4},4x-8V25[8:12],,,
{4},,,,
{4},6x-2V85b[8:12],,,
{4},,,,
{4},2^5b[4:1]/6^1b[4:1],,,
{4}3bx/7bx,2h[2:1],{32}E1,E2,E3,E4,E5,E6,E7,E8,E1f,,,,,,,,
{4}3^6[4:1],6^1b[4:1],1^4[4:1],4^7b[4:1],
{4}7^2[4:1],2^5qq6b[32:15],6,7,
{4}8^5[4:1],5^2b[4:1],2^7[4:1],7^4b[4:1],
{4}4^1[4:1],1^6pp5b[32:15],5,4,
{4}3^5[8:1],5,2^5[8:1],5,
{4}1b>5b[32:5]/6h[4:1],,7bV53b[32:5]/2h[4:1],,
{8}2/4,3,6/4,5,2/8,1,8/6,7,
{16}2x,1,3,7,5,6,4,8,Cf,,,,3x-8b[8:1]/4x-8b[8:1],,2x,,
{8}3bx/4bx,,7^2[8:1],6,5,4-8[8:1],3,2^5[8:1],
{8}2,7v4[8:1],7,3,3,,6-1[8:1]`5-1[8:1],7,
{8}5b/6b,,2^7[8:1],3,4,5-1[8:1],6,7^4[8:1],
{8}7,3v8[8:1],3,5,5,,3-8b[8:1]/4-8b[8:1],2,
{8}3b/4b,,7^2[8:1],6,5,4-8[8:1],3,2^5[8:1],
{8}2,6^1[8:1],6,4-8[8:1],4,{16}7x,6x,{24}5x,,,1bx^6[8:1],2x,3x,
{8}4x,1xb,,{24}1x^6b[8:1],2x,3x,{8}4x,1bx,3,3h[4:1],
{16},,4,,2,5,1,6,{8}7bx/8bx,,2x-5b[8:1]/1x-5b[8:1],3x,
{8}2bx/1bx,,7^2[8:1],6,5,4-8[8:1],3,2^7[8:1],
{8}2,5-1[8:1],5,2,2,,7-4[8:1]`8-4[8:1],6,
{8}7b/8b,,2^7[8:1],3,4,5-1[8:1],6,7b^4[8:1],
{8},3b-7[8:1]*-8b[8:1]/7,,3b,,{16}1,6,2,5,3,4,
{8}2x-5b[8:1],,4,4h[8:3],{16},,7,8,1,2,3,4,
{8}7x-4[8:1],,5,5h[8:3],{16},,2,1,8,7,6,5,
{8}2x-6b[8:1],,5,5h[8:3],{16},,7,8,1,2,3,4,
{4}8b-4[8:1],2b-5[8:1]/8,7b-4b[8:1]*-3[8:1]/2,7b,
{8}2x/6x,4b/8,,5/1,3b/7,,2/6,4b/8,
{8},5/1,3b/7,,2^5[8:1]/6^1[8:1],,2/6,,
{8}7x/3x,5b/1,,4/8,6b/2,,7/3,5b/1,
{8},4/8,6b/2,,7^4[8:1]/3^8[8:1],,7/3,,
{8}2x/6x,4b/8,,5/1,3b/7,,2/6,4b/8,
{8},5/1,3b/7,,2^5[8:1]/6^1[8:1],,2/6,,
{8}2x/6x,4b/8,,5/1,3b/7,,2/6,4b/8h[8:3],
{8},,1b>8[8:3],,,,,,
{16}2x,4,3bh[8:1],,5,,6,5,7bh[8:1],,4,,3,4,2bh[8:1],,
{16}5,,7,5,6bh[8:1],,4,,{24}1,2,3,4,5,6,Cf,,,,,,
{16}7x,5,6bh[8:1],,4,,3,4,2bh[8:1],,5,,6,5,7bh[8:1],,
{16}4,,2,4,3bh[8:1],,5,,{24}8,7,6,5,4,3,Cf,,,,,,
{16}2x,4,3bh[8:1],,5,,6,5,7bh[8:1],,4,,3,4,2bh[8:1],,
{16}5,,7,5,6bh[8:1],,4,,{24}1,2,3,4,5,6,Cf,,,,,,
{16}2x,4,3bh[8:1],,5,,6,5,7bh[8:1],,4,,1xq6[32:7],1xp4b[32:5],8bx,,
{16},,,,,,4,5,3x/6x,,,,,,,,
