&title=奇縁ロマンス
&artist=ナナヲアカリ
&first=0.515
&des=Suika
&lv_5=13
&inote_5=(103){8}1-5[16:1]/8-4[16:1],2/7,1/8,,2-5[16:1]b/7-4[16:1]b,3/6,2/7,,
{32}4/5,
,,
5,4,,,4,{8}5pp4[4:1],3/6,4qq5[4:1]b/5,4,3,,
1-6[16:1]*-4[16:1],2/8,1,,4qq4[8:1]b*pp4[8:1]b/5,3/4,4,,
{12}2x,1x,3x,7x,8x,6x,{4}1>5[8:1]/5<1[8:1],5p1[8:1]/1p5[8:1],1v3[8:1]/5v7[8:1],1b/5b,
{8}2/6h[8:1],{16}2,,B7,B2,B6,B3,Ch[8:1],,,,
{8}3-7[8:1]/5,6-2[8:1]/4,3q6[4:1],6,{4},,4b/8b,
{8}7/3h[8:1],{16}7,,B2,B7,B3,B6,Ch[8:1],,,,
{8}6-2[8:1]/4,3-7[8:1]/5,6p3[4:1],3,,,{4},
{8}2/7h[16:3],{16},,B7/3,,4,5,6h[16:3],4,3,,B6/B3,,4,,5h[16:3]/3,,,,B5/3,,1/8,,6/4h[16:3],,,,
{8}5<1[4:1]/B4,5,1>5[4:1],1,5q1[4:1],5,1q5[4:1],1,5<1[4:1],5,1>5[4:1],1,5pp5[4:1]*qq5[4:1],5,{4},,
{8}7/2h[16:3],{16},,B2/6,,5,4,3h[16:3],5,6,,B3/B6,,5,,4h[16:3]/6,,,,B4/6,,8/1,,3/5h[16:3],,,,
{8}4>8[4:1]/B5,4,8<4[4:1],8,4p8[4:1],4,8p4[4:1],8,4>8[4:1],4,8<4[4:1],8,4p8[8:1]*>8[8:1],4,,,
{8}8/7,2/1,{16}6-1[16:1],5,7,5,6,,3-8[16:1],4,2,4,3,,5qq1[4:1],4h[16:1],,6h[16:1],{8}5,6,5p1[8:1]*q1[8:1],6/4,{4},
{8}1pp4[4:1]/2,7/8,{16}1/6h[16:1],,5pp8[4:1],,{8}B7/B6/E7,{16}5/3h[16:1],,4h[16:1],,{8}B3/B2/E3,6^8[16:1]/7,2/3^1[16:1],3h[16:1],6,1pp3[8:1]/5pp7[8:1],4x/8x,{4}1/5,
{8}8q5[8:1]b/4bq1[8:1],2b/6,4/8b,,3bp6[8:1]b/7p2[8:1],6/2b,7/3b,,
{32}4/5,,,5,4,,,4,{8}5p3[4:1],3/6,4q6[4:1]b,3,4b,,
{8}1bq6[16:1]*p4[16:1],8/2,1,,{16}4bqq4[8:1]b*pp4[8:1]b,5,{8}3,4,,
{12}3b,4b,2b,6b,5b,7b,8x<4[8:1]/4x>8[8:1],8x/4x,8x/4x,{4}8x/4x,
{8}1bp4[8:1]/5p8[8:1]b,7/3b,5b/1,,6p1[8:1]b/2bp5[8:1],8/4b,2/6b,,
{32}5/4,,,4,5,,,5,{8}4q1[8:1],6/3,5p8[8:1]b,6,5b,,
{8}8bp3[16:1]*q5[16:1],1/7,8,,{16}5bpp6[8:1]b*qq4[8:1]b,4,{16}6,6,{8}5,,
{12}8bp4[12:1]b,4b<6[12:1]b,6b<8[12:1]b,,,,3x>8[12:1],8x<5[12:1],5x>3[12:1],{4},7<5[16:1]*<3[8:1]*<1[16:3]*<7[4:1],Cf/Cf,{1},{4},,,{8},
3qq1[16:1],6h[16:3],,{8}5h[8:1],{16}4,B5,{8},E3/B3/B2,E7/B6/B7,
6pp8[16:1],3h[16:3],,4h[8:1],{16}5,B4,{8},E7/B6/B7,E3/B3/B2,
2,8h[4:1],{16},7<4[8:1],7,,1,1,{8},E3/B3/B2,E7/B6/B7,
7,1h[4:1],{16},2,{8}2pp4[16:1],8qq6[16:1],2,8,
2h[8:1],4,B1/B2/E2/3h[4:1],{16},4,{8}4h[8:1],{16}5,5,{4}B3/B4/E4,
{8}7h[8:1],5,B8/B7/E8/6h[4:1],{16},5,{8}5h[8:1],{16}4,4,{4}B6/B5/E6,
{8},4>8[8:1],8<4[8:1],,4-8[8:1],{16}8-6[8:1],8-2[16:1],{4},{8},
5b/4-2[16:1],4V61[12:2]/3b,5/4b,{12}4V27[12:2]b/1b,2,3,7b/4,6,5,{4}Cf/Cf,
{8}2,2,{16}B7,B2,B6,B3,{8}Ch[8:1],,{4}3h[2:1],E4/B4,5h[4:1],{8}E6/B6,4/6,3/5,{16}3h[16:1],4h[16:1],3q3[8:1],4,{8}3,{4}2h[2:1]/3,E2/B1,
8h[2:1],E8/B7,6h[4:1],{8}E6/B5,5/7,4/6,{16}6h[16:1],5h[16:1],6p6[8:1],5,{8}6,{4}7h[2:1]/6,E8/B8,
5h[2:1],B6/E6,3h[4:1],{8}B2/E3,2/4,3/5,{16}4h[16:1],5h[16:1],4q5[4:1],5,{8}4,{4}Cf/Cf,,
7x/8x,1x/2x,3x/4x,{1}5hx[4:3]/6hx[4:3],
{8}1bp4[8:1]/5p8[8:1]b,7/3b,5b/1,,6q3[8:1]/2bq7[8:1]b,3b/7,2b/6,,
{32}5/4,,,4,5,,,5,{8}4q6[4:1],6/3,5p3[4:1]b,6,5b,,
{8}8bqq6[16:1]*pp2[16:1],1/7,8,,{16}5pp5[8:1]b*qq5[8:1]b,4,{8}6,5,,
{12}6b,5b,7b,3b,4b,2b,1x>5[8:1]/5x<1[8:1],1x/5x,1x/5x,{4}1x/5x,
{8}8q5[8:1]b/4bq1[8:1],2b/6,4/8b,,3bq8[8:1]/7q4[8:1]b,1b/5,7b/3,,
{32}4/5,,,5,4,,,4,{8}5p8[8:1],3/6,4q1[8:1]b,3,4b,,
{8}1bqq7[16:1]*pp3[16:1],8/2,1,,{16}4bqq3[8:1]b*pp5[8:1]b,5,{16}3,3,{8}4,,
{12}1bq5[12:1]b,5b>3[12:1]b,3b>1[12:1]b,,,,6x-1[12:1],1x-4[12:1],4x-7[12:1],{4},1>3[24:1]*>5[12:1]*>7[24:3]*>1[6:1],1w5[16:1]b,Cf/B7/B3,{4},,
3xh[4:1],6xh[4:1],{12}4h[12:1],5h[12:1],B4,{4}B5,{8},2h[8:1],7h[4:1],,{12}1h[12:1],8h[12:1],B1,{4}B8,
4h[4:1],5h[4:1],{12}3h[12:1],6h[12:1],B3,{4}B6,{12}7xh[4:1],6,5,8xh[4:1],7,6,{4}5b,,
6xh[4:1],3xh[4:1],{12}5h[12:1],4h[12:1],B5,{4}B4,{8},7h[8:1],2h[4:1],,{12}8h[12:1],1h[12:1],B8,{4}B1,
5h[4:1],4h[4:1],{12}6h[12:1],3h[12:1],B6,{4}B3,{12}2xh[4:1],3,4,1xh[4:1],2,3,{4}4bq1[8:1]b,
8q5[8:1],
