&title=Lisrim
&artist=onoken
&first=0
&des=FeLys -without 553-
&clock_count=4
&lv_5=13+
&inote_5=(172){1},{8},,,,,E7,E3,C,
{1}5xq7[4:13]`1xq3[4:13],,,,
{8}6hx[2:3],,3,4,,,5,4,,,2,4,,6,5,4h[4:1],
,5,2,3h[4:1],,5,6,6h[4:1],,7,6,5-1[8:1],4,3bhx[4:1]/5x,,,
7b/2b,,1>4[4:1],1,,,6<1[4:1],6,,,2-6[4:1],2,,,7v4[4:1],8,
,,1q5[4:1],2,,,8z4[4:1],7qq3[8:5],,,,3x,3hx[8:1],,2>5[4:1],1,
,,8<5[4:1],8,,,3>8[4:1],3,,,7-3[4:1],7,,8,1,2v5[4:1],
,6,7,8p4[4:1],,3,2,2<7[4:1],,6,5,4-8[8:1],,6bh[4:1]/4x,,,
1h[4:1]/7,6,5,6h[4:1],4,3,2h[4:1],1,8,7h[4:1],5>1[16:3],3h[4:1],,,{16}8x,7x,6x,5x,
{8}4hx[4:1]/3,2,1,2h[4:1],1,7,6h[4:1],8,2,1h[4:1],7>4[4:1],5h[4:1],,,5x-1[8:1],5x,
2b,2,28,27,6,6,65,64,3,3,31,38,7,75,74,73,
{16}2,8,1,7,4,5,3,6,2,8,4s8[2:1]*z8[2:1],6,1,,4x,,{8},,,,,2bh[4:1]/7bh[4:1],,,
6h[4:1]/5,,5,2h[4:1],5,,8h[4:1]/5,,5,3h[4:1],5,,5/7<5[8:1],,3,,
2h[4:1]/4,,4,7h[4:1],4,,4/1h[4:1],,4,6h[4:1],4,,{16}45,3,2,1,7,6,5,4,
{8}2h[4:1],,8,6h[4:1],8,,8/1h[4:1],,8,7h[4:1],8,,8/4>8[4:1],,{12}8,7,6,
{8}5h[4:1],,1,7h[4:1],1,,1/2h[4:1],,{16}4,5,6,7,1,2,3,4,1,8,7,6,4,3,2,1,
{8}8x>3[8:1]/5x,,6,7-4[8:1],,2,1-5[8:1],,5,6<1[8:1],,3,4w8[8:1],,4,,
2/6>3[8:1],,3,1q5[8:1],,8,7v4[8:1],,2,8>4[4:1],,5,{16}5x,6,7,8,1,2,3,4,
{8}5x/1x-5[8:1],,1/6-8[32:3],,6/2-5[8:1],,2/8x-4[8:1],,8/3-8[8:1],,3/5<8[8:1],,5/1w5[8:1],,1,,
3x/7x,37,46,46,35,35,26,{16}1,1,5,3,4,2,5,4,6,5,{24}7h[4:1],,,2,1,8,,6,5,4,3,2,
{8}1bV35[16:3]/E8f/B7/B8,,1x/6x,8<5[8:1],,{24}4,3,2,{8}1h[4:1],,3V57[16:3],,23,1-5[8:1],,8,7,6,
3-5[8:1]/6,5<3b[8:3],,8h[4:1],,,{12}7,6,5,{16}2,4,3,5,{24}2x,3,4,6x,7,8,{16}4x,3,2,1,8/6h[4:1],,,,
4,5,3>5[4:1],4,2,3,1h[16:3],,,,2,,3/4x,,,,5,4,6<4[4:1],5,7,6,8h[16:3],,,,7,,6/5x,,,,
4,5,3,4,1h[8:1],,5,4,6,5,8h[8:1],,{12}3,4,1,7,8,6,{16}5x,4,3,2,18,7,6,5,4/2-6b[8:1],,,,
{8}2b/8bV64[16:3],,8x/4x,1>4[8:1],,{24}5,6,7,{8}8h[4:1],,6V42[16:3],,76,8-4[8:1],,1,2,3,
3V52[16:3]/5,,37,1<5[16:3],,21,2h[4:1],,{16}4,3,5,4,{24}6x,7,8,2x,3,4,{16}8x,7,6,5,4/3>8[8:1],,,,
{8}7-4[8:1]/3,6,1-5[8:1],2,6>3[8:1],7,2,2h[8:1],{16}8,1,7,2,6,3,5-1[8:1],4,6,,7bh[4:1]/5x,,,,,,
{1}8b/Cf,{8},,,,,,E7,E6,
,,E3,E4,,,C,E5,,,,E7,E8,E1,E2,E3,
6x>3[4:7],,E2,B2,,,E8,B7,,,C,E1,,E6,E5,E4,
2x<7b[4:5],,C,E5,,E2,E3,E4,,E6,E7,E8,,1bh[4:1]/8bh[4:1],,,
7h[4:1]/4,2,8,2h[4:1],8,6,7h[4:1],5,3,2h[4:1],1<5[16:3],7h[4:1],,,{16}4x,3x,2x,1x,
{8}8hx[4:1]/7,6,5,6h[4:1],5,3,1h[4:1],4,6,8h[4:1],3<8[4:1],1h[4:1],,,1x-5[8:1],1x,
6b,6,64,63,2,2,21,28,7,7,75,74,3,31,38,37,
{16}6,4,5,3,8,1,7,2,6,4,8z4[2:1],2,5,,8x<1[8:5],,{8},,,,,,,,
{1}7bp5[4:13]/3bp1[4:13],,,,
{8}6V47[2:1],,,1h[8:3],,,,,2V84[2:1],,,5h[8:3],,,,,
7V13[8:3],,,3<3[4:3],,,1,,1h[2:1],,,,{24}4x,5,6,7,8,1,3x,4,5,6,7,8,
{16}1b/5b,,4>1[8:1],3,5,,4x/6,,7<4[8:1],8,7,,7x/1,,2,,3/8x,,5<8[8:1],6,4,,5x/3,,2>5[8:1],1,2,,2x/8,,7,,
{12}7x,5,6,3,3h[24:1],4,2,8,1,7x,7,8,{16}6x,1,7,8,{24}6x,5,4,2x,1,8,{16}4x,5,6,7,8/1x,2,3,4,
7b,5,6,4,6,5,8b,5,6,4,5,3,4bhx[8:1],,3,4,2b,4,3,5,3,4,1b,4,3,5,4,6,5bhx[8:1],,7,7,
1b,8,2,4,3,5,4x,6,5,7,4,6,3x,5,2,4,1b<6[16:3],,7b<4[16:3],,5b>2[16:3],,3b>1[8:1],,,,{32}8b,7x,6x,5x,4x,3x,2x,1x,8x,7x,6x,5x,
{1}E1f/B1/B8/4bxq6b[4:7]*<4[2:7],,,,
{8}6hx[2:3],,3,4,,,5,4,,,2,4,,E6,E5,E4,
,E8,E7,E6/B5,,E4,E3,E2/B1,,E7,E3,C,,,,,
{1},,E
