&title=3.14
&artist=ルゼ
&first=0
&des=
&clock_count=4
&whole_bpm=159
&demo_seek=28.679
&demo_len=27.169
&des_7=-1
&lv_7=π
&inote_7=(159){4},,,,{16}
3h[4:31]/4^3v2^1-4^3-6-1-4[4:30],,,,,,,,,,,,,,,,
,,,,,,,,,,,,,,,,
,,,,,,,,,,,,,,,,
,,,,,,,,,,,,,,,,
,,,,,,,,,,,,,,,,
,,,,,,,,,,,,,,,,
,,,,,,,,,,,,,,,,
,,,,,,,,,,,,,,,,
3h[4:15]/4h[4:15],,,,,,,,,,,,,,,,
,,,,,,,,,,,,,,,,
,,,,,,,,,,,,,,,,
,,,,,,,,,,,,,,,,
3^4^3v2^1[2:1]/4h[4:3],,,,,,,,,,,,,,,,
1-4-1[2:1]/3h[4:3],,,,,,,,,,,,,,,,
4-1-6-3-6-1-4[2:3]/3,,,,1,,,,4,,,,3,,,,
1,,,,4,,,,3,,,,1,,,,{18}
1,4,,,4,,,4,,,4,,,4,,,4,,
,4,,,4,,,4,,,4,{72},{16},4,1,,1,1,
3,,3,3,,3,3,,3,,3,3,1,,1,1,
3,,3,3,,3,3,,3,,3,3,1,,1,1,
3,,3,3,,3,3,,3,,3,3,1,,1,1,
3,,3,3,,3,3,,3,3,3,3,1,,1,1,
3,,3,3,,3,3,,3,,3,3,1,,1,1,
3,,3,3,,3,3,,3,,3,3,1,,1,1,
3,,3,3,,3,3,,3,,3,3,1,,1,1,
3,,3,3,,3,3,,3,3,3,3,1,,1,1,
3,,3,3,,3,3,,3,,3,3,1,,1,1,
3,,3,3,,3,3,,3,,3,3,1,,1,1,
4,,4,4,,4,4,,4,,4,4,1,,1,1,
4,,4,4,,4,4,,4,,4,4,1,,1,1,
3,,3,3,,3,3,,3,,3,3,1,,1,1,
3,,3,3,,3,3,,3,,3,3,1,,1,1,
4,,4,4,,4,,4,4,4,4,4,4,4,4,4,
4,4,4,4,4,4,4,4,4,4,4,4,4,4,4,4,
4,4,4,4,4,4,4,4,4,4,4,4,4,4,4,4,
4,4,4,4,4,4,4,4,4,4,4,4,1,,1,1,
4,1,3,,14,,3,1,4,1,3,,14,,3,1,
4,1,3,,14,,3,1,4,1,3,,14,,3,1,
4,1,3,,14,,3,1,4,1,3,,14,,3,1,
4,1,3,,14,,3,1,4,1,3,,14,,3,1,
4,1,3,,14,,3,1,4,1,3,,14,,3,1,
4,1,3,,14,,3,1,4,1,3,,14,,3,1,
4,1,3,,14,,3,1,4,1,3,,14,,3,1,
4,1,3,,14,,3,1,4,4,4,4,4,4,4,4,
4,1,3,,14,,3,1,4,1,3,,14,,3,1,
4,1,3,,14,,3,1,4,1,3,,14,,3,1,
4,1,3,,14,,3,1,4,1,3,,14,,3,1,
4,1,3,,14,,3,1,4,1,3,,14,,3,1,
4,1,3,,14,,3,1,4,1,3,,14,,3,1,
4,1,3,,14,,3,1,4,1,3,,14,,3,1,
4,1,3,,14,,3,1,4,1,3,,14,,1,3,
1,4,1,4,3,4,3,4,1,4,1,4,3,4,3,4,
1,4,1,4,3,4,3,4,1,4,1,4,3,4,1,4,
1,4,1,4,3,4,3,4,1,4,1,4,3,4,1,4,
1,4,1,4,3,4,3,4,1,4,1,4,3,4,1,4,
1,4,1,4,3,4,1,4,1,1,1,1,1,1,1,1,
1,4,1,4,3,4,3,4,1,4,1,4,3,4,1,4,
1,4,1,4,3,4,3,4,1,4,1,4,3,4,1,4,
1,1,1,1,1,1,1,1,1,1,1,1,1,1,1,1,
1,1,1,1,1,1,1,1,1,1,1,1,1,1,1,1,{18}
1b,4,,,4,,,4,,,4,,,4,,,4,,
,4,,,4,,,4,,,4,{72},{16},4,1,,1,1,
3,,3,3,,3,3,,3,,3,3,1,,1,1,
3,,3,3,,3,3,,3,,3,3,1,,1,1,
3,,3,3,,3,3,,3,,3,3,1,,1,1,
3,,3,3,,3,3,,3,3,3,3,1,,1,1,
3,,3,3,,3,3,,3,,3,3,1,,1,1,
3,,3,3,,3,3,,3,,3,3,1,,1,1,
4,,4,4,,4,,4,4,4,4,4,4,4,4,4,
4,4,4,4,4,4,4,4,4,4,4,4,4,4,4,4,
4,4,4,4,4,4,4,4,4,4,4,4,4,4,4,4,
4,4,4,4,4,4,4,4,4,4,4,4,1,,1,1,
3b/4b,E,
