&title=Superior MAXXX
&artist=333-DJ TOTTO-444
&first=0
&des_1=SetDesigner
&des_2=SetDesigner
&des_3=SetDesigner
&des_4=SetDesigner
&des_5=333-APRICOT-444
&lv_5=14+
&des_6=SetDesigner
&des_7=SetDesigner
&des=SetDesigner
&inote_5=(333),,,,,,8/1,,6bh[1:2]/2bh[1:2],,,,,,,,,,,,
{16}3,,5,4,5,,3,,,,,,5,,,,
{1}7bh[1:1]/3bh[1:1],{4},,5/4,,7b/8b,,1b/2b,,4b/3b,,6b/5b,,
{8}3b,4,3,4,2,5,2,5,1,6,1,6,8,8,7,7,5,6,5,6,4,7,4,7,3,8,3,8,2,,,,
{12}1,8,1,8,1,8,1,8,1,8,1,8,2,7,2,7,2,7,2,7,2,7,2,7,{16}2,3,4,5,6,7,8,1,2/7,6,5,4,3,2,1,8,
{1}7bh[2:1]/Cf,
{8}6h[4:1]/5h[2:1],,,,6,,6,,7h[4:1]/4h[4:1],,,,5h[4:1]/2h[4:1],,,,
{12}3,4,3,4,3,4,3h[4:1],,,,,,{4}5h[4:1]/4h[4:1],,6/5-1[8:1],,
{8}7b,,7,,6/5,,6/5,,4/2,,4/2,,7/1,,7h[8:1]/1h[8:1],,6/2-4[8:1],,6,,6/1-5[8:1],,6,,6/2-4[8:1],,6,,7h[8:1]/5h[8:1],,8h[8:1]/4h[8:1],,1-5[8:1]/3,,3,,3/8-6[8:1],,3,,3/1-5[8:1],,3,,3h[8:1]/4h[8:1],,5h[8:1]/4h[8:1],,6/2-5[8:1],,6,,6/1-5[8:1],,6,,6/8-4[8:1],,6,,7b/2b,,,,5b/3b,,5/3,,1/2,,1h[8:1]/2h[8:1],,6/4,,6/4,,8/1,,8h[8:1]/1h[8:1],,3/7-4[8:1],,3,,3/8-4[8:1],,3h[8:1],,3/1-5[8:1],,3,,8h[8:1]/2h[8:1],,7h[8:1]/3h[8:1],,6b,5,6,5,7,4,7,4,5b,2,5,2,4,3,4,3,5b,5,5,,4b,4,4,,6,5,7,4,8,3,1,2,8h[8:1],,8h[8:1],,2,3,4,5,{6}7,7,7,{8}3,2,1,8,{12}6,5,6,5,6,5,{6}7,7,7,{8}2,3,4,5,6,7,8,1,{6}6,6,6,{8}4,3,2,1,5h[8:1],,5h[8:1],,8,1,2,3,6,7,8,1,{6}3,3,3,5/4,4/5,4/5,6bh[4:1]/2bh[4:1],,,{8}3h[8:1],,3h[8:1],,8,7,6,5,{6}2,2,2,
{8}6,7,8,1,{12}3,4,3,4,3,4,2,,2,,2,,{8}6,7,8,1,2,3,4,5,{6}1,1,1,{8}7,6,5,4,2h[8:1],,2h[8:1],,5,6,7,8,2,3,4,5,{6}7,7,7,{8}3,2,1,8,{12}6,5,6,5,6,5,
{1}7bh[4:8]/4bh[4:8],,,
{16}6,,4,5,4,,6,,,,,,3,,,,{1}6bh[1:1]/2bh[1:1],
{4},,8/1,,7/4,{12}6,5,6,5b,,,3,4,3,4b,,,6,5,6,5b,,,3,4,3,
{8}5b,2,6,3,7,4,8,3,1h[8:1]/2h[8:1],,,7h[8:1]/5h[8:1],,,4h[8:1]/3h[8:1],,2b,8,1,7,2,6,3,5,2/4,,6,6/5,,8/1,,3/4,3b,5,4,6,3,,7,8,6b,1,7,,2,1,3,8,2b,4,3,5,4b,6,5,7,{6}4b,4,4,5b,5,5,7b/2b,,,
(166.5){4}8bh[4:14]/1bh[4:14],,,(111),,(55.5),(333){1},,,
{8}6b,5,6,5,7,1,7,1,4,3,4,3,5,2,5,2,8,1,8,1,7,5,7,5,
6,4,7,3,8bh[2:1],,,,2,4,2,4,3,6,3,6,4,5,4,5,2,8,2,8,1,6,1,6,3,5,3,5,2,6,1,7,8b,8b,8b,8b,
(444){6}1,7,1,6,2,6,3,5,3,6,4,6,3,4,3,6,5,6,2,3,2,5,4,5,1,3,2,4,3,5,4,6,5,6,3,4,3,7,5,7,2,4,2,8,6,8bh[2:1],,,2,8,2,7,1,7,3,4,3,6,5,6,2,4,2,7,5,7,3,5,3,6,4,6,
{8}3h,4h,3h,4h,3h,4h,3h,4h,2h,5h,2h,5h,2h,5h,2h,5h,1h,6h,1h,6h,1h,6h,1h,6h,7bh[2:1]/8bh[2:1],,,,,,,,
4b/3b,,5/2,,6,,6,,5/4,,6/3,,2,,2,,7/3,,6,4,5,4,6,,3,4,2,,6,5,7,5,6,,7/4,,3,,3,,2/4,,5/1,,6,,6,,2,4,3,,7,5,6,,2,4,3,5,4,,6/5,,7b,5,6,,4,,4,,5/3,,6/4,,7,,7,,8/1,,2,1,3,1,2,,6,5,7,5,6,,3,4,
{4}2,2h[4:1],5h[4:1],3h[4:1],6h[4:1],4h[4:1],7,7h[4:1],4h[4:1],6h[4:1],3h[4:1],5,4b/2b,,7b/5b,,
{8}1b,5,2,5,3,,6/4,,7,5,6,5,7,,4/6,,3,5,3,5,2,4,2,4,1,2,3,4,5/6,,7/4,,3,5,4,5,3,,6/2,,7,1,6,8,7,,6/1,,2,5,2,5,4,7,4,7,2,3,4,5,8,7,6,5,3,4,2,4,3,,5/4,,6,5,7,5,6,,5/3,,2,4,2,4,1,5,1,5,8,6,8,6,1bh[2:1],,,,7,8,6,,5/1,,3,4,2,5,3,,6/4,,7,5,6,4,7,3,8,2,1,,7bh[2:1]/3bh[2:1],,,,,,,,6h[8:1],,6h[8:1],,8,1,2,3,{6}7,7,7,{8}5,4,3,2,8,7,6,5,{6}3,3,3,{8}7,8,1,2,3,4,5,6,{6}2,2,2,{8}8,7,6,5,1h[8:1],,1h[8:1],,4,5,6,7,1,2,3,4,{6}6,6,6,5x/4x,5x/4x,5x/4x,7bh[4:1]/2bh[4:1],,,{8}3h[8:1],,3h[8:1],,6,7,8,1,{6}4,4,4,{8}8,7,6,5,3,2,1,8,{6}5,5,5,{8}2,3,4,5,6,7,8,1,{6}6,6,6,{8}3,2,1,8,
6h[8:1],,6h[8:1],,1,2,3,4,6,7,8,1,{6}3,3,3,{8}8,7,6,5,4,3,2,1h[8:3],,,3b,,
{6}8,8,8,{8}2,3,4,5,{6}7,7,7,{8}3h[8:1],,3h[8:1],,8,7,6,5,1,8,7,6,5,4,3,2,{6}6,6,6,{8}1h[8:1],,1h[8:1],,4,5,6,7,{6}2,2,2,{8}8,7,6,5,3,2,1,8,{6}6,6,6,5bh[4:1]/4bh[4:1],,,{8}
3b,4,3,4,2,5,2,5,1,6,8,7,1,6,8,7,5b,6,5,6,4,7,4,7,3,8,2,8,1,8,1,8,{12}2b,3x,4x,{8}8,1,8,1,8,1,{12}7b,6x,5x,{8}1,8,1,8,1,8,2b,4,3,5,4b,6,5,7,{16}4b,3,2,1,8,7,6,5,4,3,2,1,8,7,6,5,{1}4bh[4:3]/8bh[8:3],,,,,,,{2}8,7/1,
{12}1b,2x,3x,{8}6x,5x,{6}7,4,8,3,1,2,8,1,1,{12}8b,7x,6x,{8}3x,4x,{6}2,5,1,6,8,7,1,8,8,
{12}1b,2x,3x,{8}6,5,6,5,7,4,{12}8b,7x,6x,{8}3,4,3,4,2,5,{12}1b,2,3,4,5,6,8b,7,6,5,4,3,{16}1b,2,3,4,5,6,7,8,1b,2,3,4,5,6,7,8,
{8}1b/5b,,,2b/4b,,,6b/5b,,8b/2b,,,4b/3b,,,6b/5b,,8b/1b,,,,{24}8b/1b,7b/2b,6b/3b,5bh[8:59]/4bh[8:59],
E
