&title=Rubato
&artist=雨漏りP
&first=0.02
&des=Satella
&lv_5=13+
&inote_5=(143)
{1},
{16}3hbx[8:1]/5hbx[8:1],,,3hbx[16:13]/5bx,{4},,,8xV63[4:1],3xV58[4:1],8xV63[4:1],3x,{16}2h[8:1],,,2h[16:13],{4},,,{16}4-6[8:1],,,3,4,,1h[16:3],,,7h[16:3],,,{4}5>2[8:1],{16}6hbx[8:1]/5bx,,,6hbx[16:13],{4},,,1V35[4:1],5V71[4:1],1,,{16}6h[8:1],,,3x/5x,,2,4,,3hx[8:1],,1,2,,7,8,,{16}1bx/E6`A5,,,2,,,3,,8x/E4`A4,,,7,,,6,,2x/B6`B5,,,3,,,{4}4>5[8:5]*<3[8:5],
(145)4b,,,{8},
(143)1b-5[8:1],2/8,1,7<4[8:1],4,{16}7,3-6[8:1],,2,,3,{8},7,1/8,{16}2,1,3,8h[8:1],,1,7,2,6,3,{8}5-1[8:1],4/6,5,,7h[8:1],{16}8,6,,1/5,,3,{4}8<5[8:1],8>3[8:1]/2,{16}8/6,,,7h[8:1],,,4x,5x,{8}2-6[8:1],1x/7x-4[8:1],2,7,3,{16}1,8,,5x/7,,4/5,,,3,4,2h[8:1],,7,8,6,2,1,3,{8}6,4/5,{16}2h[16:3]/4x,,,3h[16:3],,,4,,5x/6h[16:3],,,7h[16:3],,,{8}8,1/2,3b/8h[4:1],,7x,1h[4:1]/6,,{32}6x,5x,4x,3x,2x,1x,8x,7x,
{4}6x-1[8:1]/2x-5[8:1],2b/6b,{16}2/8,,1,7,,3,4,2,{8},1/5,2/6,{16}7,4h[8:1],,6,3,5,{8}2-4[8:1],1,2/7x-5[8:1],8,7/3,4,3,{16}2,8,,7/3,,4,{4}5-8[8:1],3/5-2[8:1],{16}5/7,,,6h[8:1],,,1x,8x,{8}3-1[8:1],7,3,6h[8:1],8,{16}7,1>4[8:1],,6,,1,{8},5,3/7,{16}4,6h[8:1],,2,1,3,8,4,7x,,5h[16:3]/6x,,,4h[16:3],,,3,,1h[16:3]/2x,,,8h[16:3],,,{8}7,5/6,4x/5b-1[8:1],,3/5,2b-6[8:1],,2/7h[8:3],,
8,{32}8x,1x,2x,3x,{4}4bx,
{8}B5/B6,{16}3,4,{4}2,{8}B5/B6,{16}3,4,{4}2x,{8}B5/B6,{16}3hx[16:3],,,4hx[16:3],,,2hx[8:1],,{32}1x,8x,7x,6x,{4}5bx,{8}B4/B3,{16}6,5,{4}7,{8}E4/B4,B1/E2,7h[4:1],C,{16}D6/E6,,,E5/D5,,,E4/D4,,
{4}2h[8:1]/6,{16}4h[8:1]/E7,C,E3,,{4}2h[8:1]/6,{24}1h[8:1]/E6,B5,B4,{8}E4,{4}2h[8:1]/6,{16}4h[8:1]/E7,C,E3,,2h[8:1]/6,,{16}E6/B5/B6,,,E4/B4/B3,,,B1/B8/E2/E8,,,,E7/4h[8:1],C,{8}E3,2h[8:1]/6,,{24}1h[8:1]/E6,B5,B4,{8}E4,{16}1bx,1bx,1bx,1bx,{32}1bx,2x,3x,4x,5x,6x,7x,8x,{16}1hx[8:1],,,2hx[8:1]/8hx[8:1],,,{8}3/7,
{4}5/1pp5[8:3],6-1b[8:1],C,{16}3hx[4:1]/4x,5x,6x,7x,8hx[16:3],,,2hx[16:3],,,4,,{4}3v8[8:1]/5v8[8:1],3x/5x,1/6qq3[8:3],2-7b[8:1],C,{16}8x,1x,2x,3x,4x/8hx[16:3],,,5hx[16:3],,,7,,6,4,5,3,{32}4,B4,C,B8,{8}A8,
{16}3h[8:1]/7h[8:1],,,2h[8:1]/6h[8:1],,,1/5,,{16}1x/5x,2x/6x,3x/7x,8x/4x,{4}1xV75[8:1]/5xV31[8:1],1-5[8:1]/5-1[8:1],,{8}6-2[8:1]/2-6[8:1],4/8,{16}2/6,C,{8},{16}3h[8:1]/4h[8:1],,,2h[8:1]/5h[8:1],,,1/6,,{16}1x/6x,7x/2x,3/8-4[8:1],,,,3,2,
{1}1bw5[2:1],A7/B7/Cf/B3/A3,,,,2h[2:3]/6-3>7[2:3],,{4}3-7>2[2:3]/5h[2:1],,,{8},6,{4}6,5,4,3,
{8}2/4,5,6/B3`B4,5,2/4,5,6/B3`B4,5,2/4,5,6/B3`B4,5,{4}2hx[8:1]/4hx[8:1],5hx[8:1]/4hx[8:1],{8}5/7,4,3/B6`B5,4,5/7,4,3/B6`B5,4,5/7,4,3/B6`B5,4,5/7,5/7,{16}6,4,5,3,{4}4h[4:1],2h[4:1],1h[4:1],8h[4:1],{8}7>2[4:1],,,3<6[4:1],,,{4}7,{8}8x,1,2/4,5h[8:1],{16}3,4,2,,6,5,7,,{2}1h[4:1]/8h[4:1],2h[4:1]/7h[4:1],{1}4hb[2:7]/5b>4-6-3-7-2-8>1-7-2-6-3-5[1:3],,,{4},,5hx[4:1],{32}2x,3x,4x,5x,6x,7x,8x,1x,
{16}2b/6b,,3,4,,2/5,,,7/8,,2,1,,3/8,,4-8[8:1],5,,,2/4,,,1,,3/7,,2,1,2h[8:1],,7,8,5h[8:1],,4>1[8:1],6h[8:1],,4,,,7,,2,8,,3,5,1-5[8:1],6,,,1,,,7,,{4}3-1[8:1]/4-6[8:1],3b/4b,{16}7/8,,6-4[8:1],4,,,{8}6<1[8:1],2,{16}6,3,,4h[8:1],,5x,6h[8:1],,3,4h[8:1],,,{8}3/5,2h[4:1],1,8,7,{4}5x-3[8:1]/6,6x-8[8:1]/5,2x-6[8:1]/6,1x-5[8:1]/2,{8}1/3-8b[8:1],4,3/7-3[8:1],6,{4}2h[8:1]/7b,{32}2x,3x,4x,5x,6x,7x,8x,1x,
{16}2x/6x,,3,4,1-3[8:1],7,8,5,1,,6,6,,4,5,2,8-4[8:1],,,5,8-6[8:1],,3,,8b,,3,3,4,1,7,8,6,,2,8,1,7h[8:1],,4xV28[4:1],6,,5,4,,7,,,6h[8:1],,3,5,2-6[8:1],,1/7,,2b/6,,8x,8,4x,6,2x,5,{8}3-5[8:1],2x,7-3b[8:1]/3,8,1/7,{16},2,{8}4-8[8:1],3/5,4/6,{16}7,7,1,5,2,6,{8}3h[8:1],4h[8:1],5h[8:1],6h[8:1],{16}A2,E3,E4,A4,A1,B1,C,B5,A8,E8,E7,A6,A1,E2,E3,A3,{8}4x/5x,3/6,1pp4[4:1]/8qq5[4:1],2/7,{2}1b/8b,{4}1v4[8:1]/7v4[8:1],1b/7b,5v2[8:1]*v8[8:1],{16}5b,Cf,,,
3x/7x,6x/4x,{8}A5f,{4},1>5[4:1],6>2[4:1],1>5[4:1],6>2[4:1],1p4[4:1],,5<1[4:1],2<6[4:1],5<1[4:1],2<6[4:1],5p8[4:1],,4q1[4:1],,7<4[8:1],1/7,7<4[8:1]/4,1/7,7p3[8:1]/4,1/7,{16}4/7,,5h[8:1]/6h[8:1],,,3h[8:1]/4h[8:1],,,{4}2>5[8:1]/5,2/8,2>5[8:1]/5,2/8,{8}E8/B8,E6/B5,,C,{16}A2/B2,,,A3/B3,,,A4/B4,,
B5/B6,,3,4,{4}2,{16}B5/B6,,3,4,{4}2x,{16}B5/B6,,3,4,{4}2,{16}B5/B6,,E2/B2/B1,,,B7/B8/E8,,,B3/B4,,6,5,{4}7,{16}B3/B4,,6,5,{4}7x,{8}1-5[8:1],8-4[8:1],1,8,{16}2h[16:3],,,6,,,{8}4h[4:1]/8h[4:1],,,{40}E7,B6,C,B2,{1}E3,{4},{32},,B5,B4,
