&title=シンカロン
&artist=りぼっこ
&first=0.02
&des=鏡川急電鉄-100号
&des_5=
&clock_count=4
&lv_5=14
&inote_5=(112){4},,,,,,,,4/6v1[8:1],
{24}6/8-4[16:1],,,,,2,{8}8/2V46[8:1],1,{24}8h[12:1],,,,,8,
{12}6,{24}6,4,,4,{8}2,{24}1/2p5[8:1],,8/7p1[8:1],,,,,,,,,4,3h[8:1],,,{4}1v6[8:1],
1/8-4[16:1],{12}8/7,{24}7,5,,5,{4}1w5[16:1],
1b<2[8:3]*>8[8:3],{8},,,,6/4,8/1,
{4}5/3v8[8:1],3/1-5[16:1],{12}1/7V53[8:1],8,{24},1h[8:1],,,,,,1,
{12}3,{24}3,5,,5,{8}7,{24}8/7q4[8:1],,1/2q8[8:1],,,,,,,,,5,6h[8:1],,,{4}8v3[8:1],
{24}8/1-5[16:1],,,,,2,{12}1,{24}4,4h[12:1],,6,,,1,8,,,{8}2h,
5h,{12}6h,{24}1h,6h[4:1],,8>4[8:1],,,,,,,6,7,8,1b,,,{4}1/5-1[8:1],
5/4-2[16:1],{8}4/1-5[8:1],8,{4}1/7v4[8:1],
{8}7/1V35[8:1],2,{12}1/8-4[8:1],{24}7,7,,,{4}8w4[8:1],8,
4/8-4[8:1],8/1-3[16:1],{8}1/4-8[8:1],7,{4}6h[4:1],
{24}8b,,,,,8,{12}7,{24}3,4,,6,{8}5<3[16:3],4/2,{4}5/8,
4/8-4[8:1],8/1-3[16:1],{8}1/4-8[8:1],7,{4}4/6v1[8:1],
{8}6/4V28[8:1],3,{12}4/5-1[8:1],{24}6,6,,,{4}4w8[8:1],4,
8/4-8[8:1],4/5-7[16:1],{8}5/8-4[8:1],3,{4}2h[8:3],
{8}4,{24}6,,6,{12}8,{24}8,2,,2,{12}4,{24}4,6,,,{4}8/2,
{32}7/1,6h[32:7],,,{8}1-5[16:1],,1,8/4h[4:1],8-5[16:1],,8,
2/4h[4:1],2q6[16:1],,2,7,8/1,{12}5/2,{24}3,4,{96},,,,,,,,{32}6/3,
7h[32:7],,,{8}1>4[16:1],,1,5/8h[4:1],5>7[8:1],{32},,,,8/5,7,6,5,
{4}4bpp2[8:3]*pp2[8:3],{8},,,,6/1,2/7,
8/2h[4:1],8-4[16:1],,8,1/5h[4:1],1-4[16:1],,1,
7/5h[4:1],7p3[16:1],,7,2,1/8,{12}4/7,{24}6,5,,,{8}4/6h[4:1],
4-1[16:1],,4,5/8h[4:1],5-7[16:1],,5/1,
3h[4:1]/8h[8:3],,,4,5-2[16:1],6,7-3[16:1],8,
1b,{24}1,,1,{12}2,{24}2,4,,4,{12}5,6/8,{24},7/2,,,8/4h[8:1],,,1,
,,1,8,,8,{8}7V15[4:1],6/5,{6}7/4h[4:1],{24},,,,4,6,,6,
{12}1,{24}1,7,,7,{12}1,{24}1,3,{48},{16}1h[48:7],{48},,,,{24}7,1,,1,{12}7,{24}7,5,,5,
7>5[8:5],,,,,,,,,,,6h[8:1],,,,,,,{8}7,8,
{4}1-5[16:1],{12}2/1b,{24}3,3h[8:1],,,{12}4,3,{24},1/2-5[12:1],,,7/8,,,2,
{4}1b-5[16:1],1/8b-4[16:1],7h[4:1]/8b>5[4:1],8,
8v3[8:1],{24}8/1-5[16:1],,,,,2,{12}1,{24}4,4h[12:1],,6q1[3:2],{12}3p8[8:5],{24}8,1,{4},,,{64},,,{192},{32}7/2,
6/3,4h[32:3]/5h[32:3],,,,,,,{8}1-5[16:1],
2h[12:1]/8h[12:1],{12}1,{24}6,6,,2,{12}4,{24}7,5>2[16:1],,8/1,,,{6}5/6,
{12}8-4[16:1],{24}1,6,,2,{12}8,{24}3,3,,5,{12}8,{24}4,1-4[16:1],,5h[8:1],,,{6}1,
{12}5-1[16:1],{24}5,2,,2,{12}5,{24}4,4,,6,{12}3,{24}8,2,,6-1[12:1],,,{6}8/1,
{4}2b,{12}3,{24}3,8,,8,{12}1,{24}7,4,,5,{12}2,{24}8,2,,,{8}8b-3[16:1],
1,{12}7/8,{24}6,6,,3,{12}8,{24}1,6>2[16:1],,2/8h[8:1],,,{6}6,
{8}1-6[16:1],{24}8,,2,{12}1,{24}3,3,,6,{12}1,{24}8,3<7[16:1],,7/1h[8:1],,,{6}3b,
{12}1-5[16:1],{24}8,8,,1,{12}7,{24}6,6,,4,{12}7,{24}2,5,,3-8[12:1],,,{6}1/8,
{4}6b,{12}3,{24}5,2,,5,{8}3h[8:1],{24}6,3,5,4,6,3,7,2,8,
{8}1b,{24}2,,2,{12}3h[12:1],{24}4,4h[12:1],,5,{12}5h[12:1],{24}6,6h[12:1],,7,,,1/8h[8:1],,,1,
{8}1h[8:1],{24}8,,8,{12}7h[12:1],{24}6,6h[12:1],,5,{12}5h[12:1],{24}4,4h[12:1],,3,{12}3h[12:1],{24}2,2h[12:1],,1,
,,1,1h[12:1],,2,{12}2h[12:1],{24}3,3h[12:1],,4h[6:1],,,,3,5,3,{12}5h[12:1],{24}6,6h[12:1],,7,
{12}7h[12:1],8,{24},2,{12}4,{24}3,6,,4,{12}6,{24}1,7,,2,8,7,6,4,3,2,
1b/8b,,,,,7,{12}6h[12:1],{24}5,4h[12:1],,3,{12}2h[12:1],{24}1,8h[12:1],,1,{12}2h[12:1],{24}3,4h[12:1],,5,
{12}6h[12:1],{24}5,4h[12:1],,5,{12}5h[12:1],3,{24},4/2h[8:1],,,4,4h[12:1],,5,{12}5h[12:1],6,{24},,,,1,
8h[12:1],,1,{12}7h[12:1],{24}8,6h[12:1],,8,7,8,7,6h[12:1],,,{8}1,{24}8/2,,1,
{1}1b<2[2:1]*>8[2:1],
{24}1>4[2:1],,,,,5,{4}5,6,7,
{24}4/5<8[2:1],,,,,4,{4}4,3,2,
{24}8/2v5[2:1],,,,,7,{4}7,{24}7,,,,,8,{4}8w4[8:1],
8b<1[8:3]*>7[8:3],{8},,,,3/5,7/1,
{4}4/6v1[8:1],6/8-4[16:1],{12}8/2V46[8:1],1,{24},8h[8:1],,,,,,8,
{12}6,{24}6,4,,4,{8}2,{24}1/2p5[8:1],,8/7p1[8:1],,,,,,,,,4,3h[8:1],,,{4}1v6[8:1],
{24}1/8-4[16:1],,,,,7,{12}8,{24}6,6h[12:1],,3-8[12:1],,,1/8,1/8,,,{12}6h,
{24}6h,1h,,1h,{12}7h,{24}7h,2h,,2h,{12}5>6[6:1]*<4[6:1],{24}5h,3h,,3h,,,,,,,{8}5-1[16:1],
6/4,{12}5,{24}2,2,,6,{12}8,{24}3,1<6[16:1],,4/5,,,{6}1/2,
{12}4-8[16:1],{24}5,4,,6,{12}4,{24}7,7,,1,{12}4,{24}8,5>2[16:1],,7h[8:1],,,{6}5,
{12}5-1[16:1],{24}5,2,,2,{12}5,{24}3,3,,6,{12}4,{24}7,8/4,,3-8[12:1],,,{6}2/1,
{4}7b,{12}1,{24}1,7,,7,{12}2,{24}2,5,,5,{12}3,{24}6,6/4,,,{8}8b-3[16:1],
1,{12}7/8,{24}6,6,,3,{12}8,{24}1,6>2[16:1],,2/8h[8:1],,,{6}6,
{8}1-6[16:1],{24}7,,2,{12}1,{24}3,3,,6,{12}1,{24}8,3<7[16:1],,7/1h[8:1],,,{6}3b,
{12}1p5[16:1],{24}8,8,,2,{12}1,{24}3,3,,5,{12}2,{24}7,1,,6-1[12:1],,,{6}34,
{4}2b-5[12:1],8b-3[12:1],6b-1[12:1],5bw1[8:1],
{1}5b<4[4:3]*>6[4:3],
E
