&title=Hot It Up
&artist=Hiro「Crackin 'DJ」
&first=-1.59
&lv_5=1
&des_5=
&inote_5=
(129)
E
&lv_6=13+
&des_6=gl
&inote_6=
(130){4},,,,1,
1,{2}1v6[8:1]*v4[8:1],
{8}4/5,{16}3,4,{8}2-5[8:1],{16}6,6,{8}2>4[8:1]*-6[8:1],7,{4}2,
{8}5/4,{16}6,5,{8}7-4[8:1],{16}3,3,{8}7<5[8:1]*-3[8:1],2,{4}7,
{8}2/1,{16}3,5,{8}4-8[8:1],{16}6,6,{8}4>1[8:1]*-7[8:1],5,{4}4,
{8}2,{16}3,4,,5,{8}6,{2}8z4[8:1]/7z3[8:1],
{16}5,4,6,3,5-8[8:1],5,{8}4,{4}3h[4:1],{16}6,6,5,5,
4-1[8:1],4,{8}3,{4}5V73[4:1]/4V26[4:1],{16},,,,,,,,2,
1,2,1,4-1[8:1],5,{8}4,6,8,8-5[8:1],8-3[8:1],
8<5[8:1],8>3[8:1],8,8,{16},5h[16:3],,,{8}4p8[4:1],6b,
{4}8<5[4:1]*>4[4:1],{16},,,,,,,,5,4,{8}6b,
4,{16}6b,5,{8}6b,4,{16}6b,5,{8}6b,5q1[4:1],6b,
1<5[4:1]*>4[4:1],,,,,4,{16}4,6,{8}5,
3/7,2/6,1/5,{32}4/8,3,2,1,8,7,6,5,4,3,2,1,{4}8p4[4:1],
{8}4<8[4:1]*>1[4:1],{16},,,,,,,,7,8,7,8,{8}6b,
{16}1,1,6b,5,{8}6b,{16}1,1,6b,5,{8}6b,1q5[4:1],6b,
5>1[4:1]*<8[4:1],{16},,,,,,,,1,8,{8}1,2/7,
{16}4,5,4,5,{8}3,{16}4,5,2/6,,,3/7,,,,,{8}4/5,
{16}3,4,{8}1-4[8:1],{16}6,6,{8}1>4[8:1]*-5[8:1],{16}7,7,{4}1,
{8}5/4,{16}6,5,{8}8-5[8:1],{16}3,3,{8}8<5[8:1]*-4[8:1],{16}2,2,{4}8,
{8}8z4[8:1]/7z3[8:1],3/4,{4}8/7,{8}1s5[8:1]/2s6[8:1],6/5,{4}1/2,
{8}4,{16}3,3,,2-5[16:1],2,2,{8}2-7[16:1],{16}6,6,{8}2,6,
{4}2/7-2[8:1],4,{8}5<8[16:1],{16}4,5,,,{8}2,
{4}8/3-6[8:1],7,{8}4>1[16:1],{16}5,4,,,{8}7,
{4}1/6-3[8:1],2,{8}6-1[16:1],{16}5,6,,,{8}2,
3-8[16:1],{16}4,3,,,{8}6,5-8[16:1],{16}4,5,,,{8}1,
8/2,5,3/1,6,{16}2-7[16:1],2,3,2,,,{8}6,
1/7,4,6/8,3,{16}7-2[16:1],7,6,7,,,{8}3,
5/3,8,2/4,7,{16}3-6[16:1],3,2,3,,,{8}7,
{16}4/8,,,5/1,,,{8}2/6,7/3,8/4,{32}5/1p4[4:1],2,3,4,5,6,7,8,
{8}1/4>1[4:1]*<8[4:1],{16},,,,,,,,5,5,{8}4,3,
{16}2/6,,,1/5,,,{8}8/4,{16}3,3,{8}7,8q5[4:1],6b,
8/5<8[4:1]*>1[4:1],{16},,,,,,,,4,4,{8}5,6,
3/7,{16}7/3,4/8,,8/4,{8}7/3,3-6[8:1]/7-2[8:1],1/5,{4}7/3,
{16}4-7[16:1],,,6-2[16:1],,,{8}3,{16}4>8[8:1],4,5,5,{8}4,{16}7,7,
{8}8/6,{16}1,1,2,2,3,3,4,4,5,5,6,6,7,7,
8-3[16:1],,,2-6[16:1],,,{8}7,8<4[8:1],{16}1,1,{8}8,{16}3,3,
{8}4/2,{16}2,2,6,6,3,3,7,7,4,4,8,8,5,5,
6/2,,,5/1,,,{8}4/8,{16}3,3,7,7,{8}2/6h[8:1],{16}1,1,
{8}7/2<4[8:5],6h[16:1],5h[16:1],4h[16:1],3h[16:1],2h[16:1],1h[16:1],8h[16:1],
{16}7/3,,,8/4,,,{8}1/5,{16}6,6,2,2,{8}7/3h[8:1],{16}8,8,
{8}2h[16:1]/7>1[16:3],3h[16:1],4h[16:1],5h[16:1],,2/1-5[8:1],4/5,1/2,
{32}3-7[8:1],2,1,8,7,6,5,4,{4}3,{8}7-4[8:1]*-3[8:1],6,{4}7,
{8}1-5[8:1]/2-5[8:1],3,{4}2/1,{8}6/5>8[4:1],4,5/6,7,
{32}6-2[8:1],5,4,3,2,1,8,7,{4}6,{8}3-8[8:1]*-7[8:1],2,{4}3,
{8}5-1[8:1]/6-1[8:1],7,{4}6/5,{16},,3/4,3/4,{8}4/3,5,
{32}3-7[8:1],4,5,6,7,8,1,2,{4}3,{8}7-2[8:1]*-3[8:1],8,{4}7,
{8}5-1[8:1]/4-1[8:1],3,{4}4/5,{8}8/1>6[4:1],2,1/8,7,
{32}8-4[8:1],1,2,3,4,5,6,7,{4}8,{8}3-8[8:1]*-1[8:1],4,{4}3,
{8}3/7,2/6,1/5,{32}8b/4,7,6,5,4,3,2,1,8,7,6,5,4,3,2,1,8,7,6,5,
{16}4/8,,,7/3,,,{8}6/2,{2}5/1>1[1:1]*>5[2:1]*>6[8:5]*>7[4:3]*>8[8:7]*>4[8:3],
E
