&title=まっしろな雪
&artist=feat. 水瀬ましろ
&first=0.875
&des=wugu
&lv_5=14+
&inote_5=(85)
{16}2,3q1[8:1],4,5h[8:1],,,,,7,6p1[8:1],5,4h[8:1],,,,,
{16}3h[16:1]/8,,7h[16:1],,2h[8:1]/6,,5,,3,4-8[32:3],5,2h[8:1],,,,,
{16}1/7,2q6[32:3],3,4h[8:1],,2,,,4/7,3q7[32:3],2,1h[8:1],,3,,,
{16}2/8,,3,4h[8:1],,5h[8:1],,7h[8:1],,1,8,2,4,,3/5,,
{32}2b/4b,,3,,4-2[16:1]/5,,6,5,7,5,6,,4,,,,1/7,,6,,4/5-7[16:1],,3,4,2,4,3,,5,,,,
{32}1/8,,2,,3-1[16:1]/4,,5,4,6,4,5,,3,,,,1/8,,7,,5/6-8[16:1],,4,5,3,5,4,,6,,,,
{32}2,1,3,8,4,7,4,6,4,5,3,5,2b,,6b,,7,8,6,1,5,2,5,3,5,4,6,4,7b,,3b,,
{48}8x,7,6,4x,3,2,7x,6,5,3x,2,1,
{64}6x,5,4,3,2,1,8,7,6,5,4,3,2,1,8,7,
{32}6bx/2bx,,3,5,4-1[16:1],,6,,4,5,3,6,4x,,,,
{64}1bx/8bx,2/7,3/6,4/5,,,,,
{32}6,5,7,,1-4[16:1]/8,,2,,6,4,5,,1,,5,,3h[16:3],,
{48}5,6,7,8v3[16:1]b,,,,,4/8,3/7v4[16:1],2/6,1/5,,,,
{32}8x/6x,,,,2x/7x,,1xh[8:1],,,,4,,2/5h[8:1],,,,7,,1h[8:1]/6,,,,7,8,7,,1,,2/6,,3,,
{32}4b/5b,,6,,3,4,2,,1/8-5[16:1],,7,,3,5,4,,8,,4,,6h[16:3],,
{48}4,3,2,1v6[16:1]b,,,,,1/5,2v5[16:1]/6,3/7,4/8,,,,
{32}1x/3x,,,,2x/7x,,8bxh[8:1],,,,5,,4h[8:1]/7,,,,2,,3/8h[8:1],,,,2,1,2,,8,,3h[16:1]/7h[16:1],,,,
{128}E3/E7`Cf,B2/B6,,,,,,,,,,,
{32},1,1,8,,2/7,,3,,4/6,,5,,1-4[16:1]/4,,2h[8:1],,1x-6[16:1],8,7,6,5/1,,,,1/3,,,,
{32}2b,,,,7,,6/8,,,,3,,2/4,,1,,4x/7x,,6,5,6,,7,,1,,1,,8,,8,,
{32}Cf/2,,,,8,8,1,,2/7,,6,,3/5,,4,,8-5[16:1]/5,,7h[8:1],,8x-3[16:1],1,2,3,4/8,,,,6/8,,,,
{32}7b,,,,4,,3/5,,,,8,,1/7,,6,,2x/5x,,3,4,3,,8,1,7,2,6,3,5b/Cf,,,,
{16}1,,7,6h[8:1]/8,,3,2h[8:1]/5,,8h[8:1],,5,4h[8:1]/7,,5,3/6h[8:1],,
{16}1,,7/8,1/6,,1/2,3h[8:1]/8,,6,5,4/B6,3,2,2,8/E2,,
{16}7,,3,2h[8:1]/4,,1,3/8h[8:1],,5h[8:1],,6,4/7h[8:1],,1,2h[8:1]/8,,
{16}4,,3,4,5/B3,6,4/B7,,
{32}4,,7,3,8-4[16:1],2,1,,8,1,7,1,8,,,,
{16}2b/5b,,3-5[16:1],4/2,,2,7/3x,,8,,5-8[16:1],6/4,,4,3/5x,,
{16}2,,7-3[16:1],1/6,,1,8/7x,,1/4,,2,3,4/E2,5,6/E4,,
{16}8,,5q1[16:1]/6,4,3,3,2/5,,4,,1q5[16:1]/2,8,7,7,1/6,,
{16}4,3/5,6,2/7,1s5[8:2],1/8z4[16:3],2/7,2/7,1/8,,,,,Chf[16:1],,,
{64}1b/8b,2/7,3/6,4V68[8:1]/5,,,,,
{16}3,2,,1,2,3>8[16:1],4b,,8,3/7,,6,5,4,
{16}8-4[16:1],1/7,2-6[16:1]/6,3,8,,2,,4/8,3/7,2-5[16:1]/6-1[16:1],1/5,,1/5,2/6,,
{64}4bx/8bx,3/7,2/6,1p4[8:1]/5,,,,,
{16}6,7,,5,6,7p3[16:1],8b,,2,1/7,,2,3,4,1h[16:1],,8,2/7h[16:1],,5,4/6,3,2/6,7,1/8,2,3/B7,4,6/B2,,
{64}1b/5b,2/6,3/7,4/8-4[16:1],,,,,
{16}3,2,,8x,1,,2b/5b,,3-8[16:1],4,,5,3x,,
{16}1-5[16:1],2/8,3/7-3[16:1],6,1,,7,,1/5,2/6,3-1[16:1]/7-5[16:1],4/8,,4/8,3/7,,
{64}2bx/6bx,3/7,4/8,1-6[16:1]/5,,,,,
{16}4,3,,1x,2,,3b/7b,,4-1[16:1],5,,6,4x,,
{16}8/7,6,2/5,3,4/6,7,8/B3,2,
{32}7bx/3bx,,6,5,4x-1[16:1]*-8[16:1],,2b/6b,,3,4,5x,,Cf,,,,
{32}3bx/7bx-1[16:1],,6x,4,5v8[16:1],,3,,7,,4x,,5x,,,,1x/6x-4[16:1],,2,5,3-7[16:1],,7,,2/6,,1,,2x/3x,,,,
{32}3/8,,7,4,6,,5,,1/8,,2,,1/8,,7,,2/5,,3,4,3,,2,,1/7,,6,5,6,,1,,
{32}2b/8b-5[16:1],,3,4,3-1[16:1],,2,,8,,,,3,,,,6/8-5[16:1],,1,7,1-4[16:1],,2,,8,,,,1,,,,
{32}5x/6x,,3,4,2,,5,,1/8,,2,,1/8,,7,,1b/8b,,2,4,3,,2,,1/7,,6,4,5,,1,,
{32}6b/2b-8[16:1],,3,5,4-7[16:1],,6,,2,,5,,4x,,,,8b/3b-5[16:1],,7,4,6-2[16:1],,2,,7/3,,8,,7/6x,,,,
{32}5/1,,2,4,3,,5,,8/1,,7,,8/1,,2,,7/4,,6,5,6,,7,,2/8,,3,4,3,,8,,
{32}7b/1b-4[16:1],,6,5,6-8[16:1],,7,,1,,5,,6x,,,,3/1v4[16:1],,8,2,8v5[16:1],,7,,1,,7,,8x,,,,
{32}4x/3x,,6,5,7,,4,,8s4[8:2]/1z5[8:2],,7,,8/1,,2,,8/1,,,,,,,,,,Chf[16:1],,,,,,
{64}1b/8b,2/7,3/6,4/5,,,,,
{16}3<6[16:1],2,,1,3,,1/7,2,3-6[16:1],8,,8,3,,
{16}5x,4,3/7,6,2>5[16:1],1,1,,2/6,7,8<5[16:1],1,,1,8,,
{16}4,3,2>5[16:1],8,,8,2,,4/7,6,5-8[16:1],3,,3,5,,
{16}4x,3,8/2,7h[8:1],,3h[8:1],,8,2/1,2/1,1-4[16:1]/8,1/8,
{32}1,8,2,7,1,,,,
{16}2/7,,3,B7,,6,B1,,2/5,,3,B5,,7,B2,,
{16}1/8,,2,B8,,7,B3,,5/6,,4,B7,,8,B3,,
{16}3/6,,2,B6,,7,B4,,3/8,,2,B8,,6,B3,,
{16}4/5,,3,B5,,6,B2,,8/7,,1,B6,,5,B2,,
{16}3>6[8:12],,,,,,,,B5,,,B4,,,,,
{16}B8,,,B1,,,,,B5,,,E4,,,B2/E3/A2/D3,,
{16}6-3-8-5-2-7-4-1-6[8:12],,,,,,,,B4,,,E3,,,,,
{16}E4,,,B2,,,,,A2,,,B3,,,Ch[32:1],,E
