&title=Blackout [原曲-ハルトマンの妖怪少女]
&artist=まりつみ
&first=-0.002
&des=Tane
&freemsg=まりつみ
&wholebpm=
&des_1=Tane
&des_2=Tane
&des_3=Tane
&des_4=Tane
&des_5=Tane
&lv_1=2
&lv_2=4
&lv_3=7
&lv_4=8
&lv_5=12+
&inote_1=(170){1},
{4}4>5[1:3],,,,{4},,,,{4},,,,
{4},,,8h[8:1],
{2}8,7,2,5,
{2}8,7,5,2,
{2}1,2,7,4,
{2}1,2,4,7,
{1}8^5[2:1],
{2}4,2,
{1}1^4[2:1],
{2}6,8,
{8}2,,2,,
,6,,6,
{8},1,,1,
,,3,,
{4}4,4,5,5,
{4}45,,45,,
{2}5,6,7,8,
{2}1,2,
{4}3,4,5,6,
{2}4,3,2,1,
{2}8,7,
{4}6,5,4,3,
{2}45,67,18,23,
{2}56,34,
{4}3,4,5,6,
{2}78,12,34,56,
{2}18,45,
{4}6,5,4,3,
{1}1-5[2:1],
{4}6,7,6,7,
{1}8-4[2:1],
{4}3,2,3,2,
{1}4-8[2:1],
{4}7,6,7,6,
{1}5-1[2:1],
{4}2,3,2,3,
{1}2q5[2:1],
{4}78,56,78,56,
{1}7p4[2:1],
{4}21,43,21,43,
{1}3q6[2:1],
{4}56,78,56,78,
{1}6p3[2:1],
{4}43,21,43,21,
{4}8b,,,,
{4}8-5[8:13],,,,
{4},,,,
{4}7-4[8:13],,,,
{4},,,,
{4}6-3[8:13],,,,
{4},,,,
{4}2-7[8:13],,,,
{4},,,,
{4}3-8[8:13],,,,
{4},,,,
{4}4-1[8:13],,,,
{4},,,,
{4}5-8[8:13],,,,
{4},,,,
{4}8,,,,{4},,,1h[8:1],
{4}1,2,3,4,
{4}5h[4:1],6h[4:1],4h[4:1],3,
{4}5,6,7,8,
{4}1h[4:1],2h[4:1],3h[4:1],8,
{4}1,2,3,4,
{4}5,6,7,8,
{4}12,12,78,78,
{4}18,18,18,,
{4}8,7,6,5,
{4}4h[4:1],3h[4:1],5h[4:1],6,
{4}4,3,2,1,
{4}8h[4:1],6,1h[4:1],3,
{4}5,67,4,23,
{4}5,78,38,12,
{4}7,56,2,34,
{1}5p4[2:1],
{2}2h[4:1]/7h[4:1],2h[4:1]/7h[4:1],
{4}1h[4:1],8h[4:1],1h[4:1],8,
{2}7h[4:1]/2h[4:1],7h[4:1]/2h[4:1],
{4}8h[4:1],1h[4:1],8h[4:1],1,
{2}2h[4:1]/7h[4:1],2h[4:1]/7h[4:1],
{4}1h[4:1],8h[4:1],1h[4:1],8,
{2}7h[4:1]/2h[4:1],7h[4:1]/2h[4:1],
{4}27,27,{8}18,18,18,,
{4}7h[4:1],5h[4:1],4h[4:1],2,
{4}7-4[8:1],2-5[8:1],7-4[8:1],2,
{4}2h[4:1],4h[4:1],5h[4:1],7,
{4}2-5[8:1],7-4[8:1],2-5[8:1],7,
{4}7h[4:1],6h[4:1],4h[4:1],2,
{4}8-4[8:1],2-5[8:1],8-4[8:1],2,
{4}2h[4:1],3h[4:1],5h[4:1],7,
{4}27,27,{8}18,18,18,,
{4}8b<1[1:3],,,,,{4},,,,
{1},,,,,,,
&inote_2=(170){1},
{4}4>5[1:3],,,,{4},,,,{4},,,,
{4},,,,
{2}8,,2,,
{2}8,,5,,
{2}1,,7,,
{2}1,,4,,
{1}8^5[2:1],
{2}4,,
{1}1^4[2:1],
{2}6,,
{8}2,,,,
,6,,,
{8},1,,,
,,3,,
{4}4,,5,,
{4}45,,,,
{2}5,,7,,
{2}1,,
{4}3,,,,
{2}4,,2,,
{2}8,,
{4}6,,,,
{2}45,,18,,
{2}56,,
{4}3,,,,
{2}78,,34,,
{2}18,,
{4}6,,,,
{1}1-5[2:1],
{4}6,,,,
{1}8-4[2:1],
{4}3,,,,
{1}4-8[2:1],
{4}7,,,,
{1}5-1[2:1],
{4}2,,,,
{1}2q5[2:1],
{4}78,,,,
{1}7p4[2:1],
{4}21,,,,
{1}3q6[2:1],
{4}56,,,,
{1}6p3[2:1],
{4}43,,,,
{4}8b,,,,
{4}8-5[8:13],,,,
{4},,,,
{4},,,,
{4},,,,
{4}6-3[8:13],,,,
{4},,,,
{4},,,,
{4},,,,
{4}3-8[8:13],,,,
{4},,,,
{4},,,,
{4},,,,
{4}5-8[8:13],,,,
{4},,,,
{4},,,,{4},,,,
{4}1,,,,
{4}5,,4,,
{4}5,,,,
{4}1,,3,,
{4}1,,,,
{4}5,,,,
{4}12,,,,
{4}18,,,,
{4}8,,,,
{4}4,,5,,
{4}4,,,,
{4}8h[4:1],,,,
{4}5,,,,
{4}5,,,,
{4}7,,,,
{1}5p4[2:1],
{2}2h[2:1]/7h[2:1],,
{4}1,,,,
{2}2h[2:1]/7h[2:1],,
{4}8,,,,
{2}2h[2:1]/7h[2:1],,
{4}1,,,,
{2}2h[2:1]/7h[2:1],,
{4}27,,18,,
{4}7h[4:1],,,,
{4}7h[4:1],,7,,
{4}2h[4:1],,,,
{4}2h[4:1],,2,,
{4}7h[4:1],,,,
{4}8h[4:1],,8,,
{4}2h[4:1],,,,
{4}27,,18,,
{4}8b<1[1:3],,,,,{4},,,,
{1},,,,,,,
&inote_3=(170){1},
{4}4>5[1:3],,,,{4},,,,{4},,,,
{4},,,,
{2}8,,,,
{2}8,,,,
{2}1,,,,
{2}1,,,,
{1}8^5[2:1],
{2},,
{1}1^4[2:1],
{2},,
{8}2,,,,
,6,,,
{8},1,,,
,,,,
{4}4,,,,
{4}45,,,,
{2}5,,,,
{2}1,,
{4}3,,,,
{2}4,,,,
{2}8,,
{4}6,,,,
{2}45,,,,
{2}56,,
{4}3,,,,
{2}78,,,,
{2}18,,
{4}6,,,,
{1}1-5[2:1],
{4},,,,
{1}8-4[2:1],
{4},,,,
{1}4-8[2:1],
{4},,,,
{1}5-1[2:1],
{4},,,,
{1}2q5[2:1],
{4},,,,
{1}7p4[2:1],
{4},,,,
{1}3q6[2:1],
{4},,,,
{1}6p3[2:1],
{4},,,,
{4}8b,,,,
{4}8-5[8:13],,,,
{4},,,,
{4},,,,
{4},,,,
{4}6-3[8:13],,,,
{4},,,,
{4},,,,
{4},,,,
{4}3-8[8:13],,,,
{4},,,,
{4},,,,
{4},,,,
{4}5-8[8:13],,,,
{4},,,,
{4},,,,{4},,,,
{4}1,,,,
{4}5,,,,
{4}5,,,,
{4}1,,,,
{4}1,,,,
{4}5,,,,
{4}12,,,,
{4}18,,,,
{4}8,,,,
{4}4,,,,
{4}4,,,,
{4}8h[4:1],,,,
{4}5,,,,
{4}5,,,,
{4}7,,,,
{1}5p4[2:1],
{2}2h[2:1]/7h[2:1],,
{4},,,,
{2}2h[2:1]/7h[2:1],,
{4},,,,
{2}2h[2:1]/7h[2:1],,
{4},,,,
{2}2h[2:1]/7h[2:1],,
{4}27,,,,
{4}7h[2:1],,,,
{4}7h[2:1],,,,
{4}2h[2:1],,,,
{4}2h[2:1],,,,
{4}7h[2:1],,,,
{4}8h[2:1],,,,
{4}2h[2:1],,,,
{4}27,,,,
{4}8b<1[1:3],,,,,{4},,,,
{1},,,,,,,
&inote_4=(170){1},
{4}4>5[1:3],,,,{4},,,,{4},,,,
{4},,,8h[8:1],
{2}8,7,2,5,
{2}8,7,5,2,
{2}1,2,7,4,
{2}1,2,4,7,
{1}8^5[2:1],
{2}4,2,
{1}1^4[2:1],
{2}6,8,
{8}2,,2,,
,6,,6,
{8},1,,1,
,,3,,
{4}4,4,5,5,
{4}45,,45,,
{2}5,6,7,8,
{2}1,2,
{4}3,,5,,
{2}4,3,2,1,
{2}8,7,
{4}6,,4,,
{2}45,67,18,23,
{2}56,34,
{4}3,,5,,
{2}78,12,34,56,
{2}18,45,
{4}6,,4,,
{1}1-5[2:1],
{4}6,,6,,
{1}8-4[2:1],
{4}3,,3,,
{1}4-8[2:1],
{4}7,,7,,
{1}5-1[2:1],
{4}2,,2,,
{1}2q5[2:1],
{4}78,,78,,
{1}7p4[2:1],
{4}21,,21,,
{1}3q6[2:1],
{4}56,,56,,
{1}6p3[2:1],
{4}43,,43,,
{4}8b,,,,
{4}8-5[8:13],,,,
{4},,,,
{4}7-4[8:13],,,,
{4},,,,
{4}6-3[8:13],,,,
{4},,,,
{4}2-7[8:13],,,,
{4},,,,
{4}3-8[8:13],,,,
{4},,,,
{4}4-1[8:13],,,,
{4},,,,
{4}5-8[8:13],,,,
{4},,,,
{4}1,,,,{4},,,1h[8:1],
{4}1,,3,,
{4}5,6,4,3,
{4}5,,7,,
{4}1,2,3,8,
{4}1,,3,,
{4}5,,7,,
{4}12,,78,,
{4}18,,18,,
{4}8,,6,,
{4}4,3,5,6,
{4}4,,2,,
{4}8h[4:1],,1h[4:1],,
{4}5,,4,,
{4}5,,38,,
{4}7,,2,,
{1}5p4[2:1],
{2}2h[2:1]/7h[2:1],,
{4}1,,8,,
{2}2h[2:1]/7h[2:1],,
{4}8,,1,,
{2}2h[2:1]/7h[2:1],,
{4}1,,8,,
{2}2h[2:1]/7h[2:1],,
{4}27,,18,18,
{4}7h[4:1],,4h[4:1],,
{4}7h[4:1],,7h[4:1],2,
{4}2h[4:1],,5h[4:1],,
{4}2h[4:1],,2h[4:1],7,
{4}7h[4:1],,4h[4:1],,
{4}8h[4:1],,8h[4:1],2,
{4}2h[4:1],,5h[4:1],,
{4}27,,18,18,
{4}8b<1[1:3],,,,,{4},,,,
{1},,,,,,,
&inote_5=(170){1},
{4}3qq5[1:3]/6pp4[1:3],,,,{4},,,,{4},,,,
{4},,,8h[8:1],
{8}48,3,5,61,
,38,,2,
{8}15,2,4,3,
37,6,4,7,
{8}48,2,5,78,
,12,,8,
{8}17,6,5,48,
,8,37,2,
{8}51,6,4,38,
,61,,7,
{8}84,7,5,6,
62,3,5,2,
{8}51,7,4,21,
,87,,1,
{8}48,6,5,7,
15,3,4,1,
{8}8-4[8:1],,8,2p6[8:1],
,8-4[8:1],,8,
{8}1-5[8:1],,1,7p3[8:1],
,1-5[8:1],,1,
{8}8-4[8:1],,8,2p6[8:1],
,8-4[8:1],,8,
{8}1,2,3,4-8[8:1],
,6p2[8:1],,1,
{8}1,2,3,4-8[8:1],
,5,6,7q4[8:1],
{8},2-5[8:1],,8,
7,6,7,8,
{8}4,3,2,1-5[8:1],
,7q4[8:1],,3,
{16}2,,3,4,
3,,1,,
6,5,6,5,
7,,18,,
{8}7,6,5,,
3,2,1,,
{8}6,7,8,,
2,3,4,,
{8}8,7,6,,
1,2,35,4,
{8}57,8,13,2,
1,8,7,6,
{8}5,3,2,,
4,6,8,,
{8}5,3,1,,
8,6,4,,
{8}2,3,5,,
4,3,26,1,
{8}85,6,73,2,
1,8,76,67,
{8}5,4,23,,
5,6,78,,
{8}5,4,12,,
4,5,67,,
{8}6,5,34,,
3,2,15,6,
{8}37,4,8,1,
,1,2,3,
{8}4,6,57,,
4,7,13,,
{8}5,2,78,,
5,1,26,,
{8}4,5,37,6,
4,8,3,5,
{8}2,6,4,5,
,3,4,3,
{8}8,7,6,5-2[8:1],
,1,8,1,
{8}5^8[8:1],4,3,2,
1^4[8:1],8,7,6,
{8}5,4,3,2-5[8:1],
,6,7,6,
{8}2^5[8:1],1,8,7,
6^1[8:1],5,4,3,
{8}2,1,8,7-4[8:1],
,3,2,3,
{8}7^4[8:1],8,1,2,
3^8[8:1],4,5,6,
{8}7,8,1,2-6[8:1],
,6,8,7,
{8}2,3,6,5,
4,3,25,,
{8}1,2,3,4-8[8:1],
,6,7,6,
{8}1v6[8:1],2,3,4v1[8:1],
5,6,7,8,
{8}1,2,3,4-8[8:1],
,6,7,6,
{8}5v8[8:1],4,3,2v5[8:1],
1,8,7,6,
{8}5,4,3,2^5[8:1],
,7,8,7,
{8}5-1[8:1],6,7,8-4[8:1],
1,2,3,4,
{8}5,6,7,8-4[8:1],
,2,1,2,
{16}7,,6,5,
6,,8,,
3,4,3,4,
2,,1b/8b,,
{4},,,,
{4}8-5[8:13],,,,
{4},,,,
{4}7-4[8:13],,,,
{4},,,,
{4}6-3[8:13],,,,
{4},,,,
{4}2-7[8:13],,,,
{4},,,,
{4}3-8[8:13],,,,
{4}6V47[4:3],,,,
{4}1-4[8:13],,,,
{4}5V72[4:3],,,,
{4}5-2[8:13],,,,
{4}7V16[4:3],,,,
{4}1,,,,{4},,,1h[8:1],
{8}1,2,{16}3,,3,4,
{8}3,4,{16}5,,5,6,
{4}5-1[8:1],4-8[8:1],6-1[8:1],3-8[8:1],
{8}4,5,6,7,
{16}8,,8,1,
8,,1,,
{4}2-5[8:1],7-4[8:1],1-5[8:1],8-4[8:1],
{8}1,2,3,4,
8,17,26,35,
{8}12,38,47,56,
5-2[8:1]/6-1[8:1],,56,,
{8}1,3,5,7,
8,6,4,2,
{8}12,56,78,34,
1^4[8:1]/8^5[8:1],,,,
{8}8,7,{16}6,,6,5,
{8}6,5,{16}4,,4,3,
{4}4-8[8:1],5-1[8:1],3-8[8:1],6-1[8:1],
{8}5,4,3,2,
{16}1,,1,8,
1,,1,,
{8}4,5,6,7,
{16}8/4-8[8:1],73,62,,
,,,,
{8}3,4,{16}5,,6,7,
{8}8,2,3,4,
{8}3,2,{16}1,,8,7,
6,,4,3,
2,,8,,
{8}7,6,5,2,
3,4,{16}4,5,4,,
{16}5,,5,6,
5,,6-2[8:1],,
,,8,,
,,,,
{8}7h[4:1],5,2h[4:1],4,
7h[4:1],5,2h[4:1],4,
{8}7-4[8:1],4,7,3,
2-5[8:1],5,2,6,
{8}7h[4:1],6,2h[4:1],3,
7h[4:1],6,2h[4:1],3,
{8}7^4[8:1],4,7,3,
2^5[8:1],5,2,6,
{8}7h[4:1],5,2h[4:1],3,
7h[4:1],8,2h[4:1],1,
{8}7-4[8:1],4,7,3,
2-5[8:1],5,2,6,
{8}7h[4:1],6,2h[4:1],4,
7h[4:1],8,2h[4:1],1,
{8}7^4[8:1],4,7,3,
24,15,86,,
{8}7h[4:1],1,3h[4:1],5,
7h[4:1],5,3h[4:1],1,
{8}8-4[8:1],7,2-5[8:1],1,
7-4[8:1],8,1,2,
{8}3h[4:1],4,7h[4:1],8,
2h[4:1],1,6h[4:1],5,
{8}2-5[8:1],1,8-4[8:1],7,
1-5[8:1],2,7,8,
{8}1h[4:1],3,5h[4:1],7,
1h[4:1],7,5h[4:1],3,
{8}2^5[8:1],1,8-4[8:1],7,
1-5[8:1],2,7,8,
{8}1h[4:1],3,8h[4:1],6,
4h[4:1],2,5h[4:1],7,
{16}4,,3,4,
2,,6,5,
7,,3,4,
2,5,1,,
{4}8b<1[1:3]/6p3[8:17],,,,,{4},,,,
{1},,,,,,,,
