&title=【电棍】Get 'em up to R.A.V.E.
&artist=DJGun
&first=0.02
&des=心白-HW
&des_4=心白-HW
&des_5=心白-HW
&lv_4=13
&lv_5=14
&inote_4=(145){4},,,,{1}5-8[4:5]/4z8[4:5],
,1-4[4:5]*-6[4:5],
,5-2[4:5]*-8[4:5],
,2V86-4[4:5]/7-3[4:5],
{8},,,,,,,,4,
4,4,4,5,5,5,5,
4,4,4,4,5,5,5,5,
3,3,3,3,6,6,6,6,
3,4,6,5,4,3,5,6,
3,3,{4}2/4,{8}6,6,{4}5/7,
{8}2,2,{4}1/3,{8}7,7,{4}6/8,
{8}1,1,8,8,{16}1,8,1,8,1,8,1,8,
{8}Ch[4:3],,,,,8b,{4}8b,
{8}5/4,6,{16}7-1[8:1],5,{8}7,{4}2-6[8:1],5,
{8}4/5,3,{16}2-8[8:1],4,{8}2,{4}7-3[8:1],4,
{8}2/4,5,{16}6-8[8:1],4,{8}6,{4}1-3[8:1],5,
2/7x-5[8:1],4x-8[8:1],6x,5/1,
{8}4/5,3,{16}2-8[8:1],4,{8}2,{4}7-3[8:1],4,
{8}5/4,6,{16}7-1[8:1],5,{8}7,{4}2-6[8:1],5,
{8}7/5,4,{16}3-1[8:1],5,{8}3,{4}8-6[8:1],4,
5/3-1[8:1],8-4[8:1],2h[4:1],5b,
{8}4/7,6,2/5,3,{16}6,5,,5,{8}7,7,
2/5,3,4/7,6,{16}3,4,,4,{8}2,2,
4/7,6,2/5,3,{16}6,5,,5,{8}7,7,
2/5,3,4/7,8,{16}2/4,,,5/7,,,{8}1/8,
3/8,2,1/6,7,{16}2,1,,1,{8}3,3,
1/6,7,3/8,2,{16}7,8,,8,{8}6,6,
1/7,1/7,2/8,2/8,{16}1,8,1,8,1,8,1,8,
{4}1-5[8:1],6-8[8:1],4-2[8:1],5b<4>5[4:15],
{1}Cf,
,,,3h[1:1],
4h[1:1],
5h[2:3],
{4}4h[2:1],,,2/7,
5/6h[1:2],5,5,5,
5,5,7,8,
3h[1:1],4,4,4,
6h[1:1],5,5,5,
3h[1:2],4,4,4,
4,4,2,1,
6h[1:1],5,5,5,
3h[4:3],4,4,4,
{8}3/4,3/4,{16},2/5,,,5/2,,,3/6,,,{8}7/4,
6/5,6/5,{16},7/4,,,4/7,,,6/3,,,{8}2/5,
6/3,4/5,{16},5/7,,,6/8,,,5/7,,,{8}4/5,
3/6,5/4,{16},4/2,,,3/1,,,4/2,,,{8}4/5,
6/3,5/2,{16},3,4,3,4,,,7/8,,,{8}1/6,
2/7,4/5,{16},3/6,,,2/7,,,1/8,,,{8}2/7,
{16}1x,8,1,8,1,8,1,8,2x,7,2,7,2,7,2,7,
1x,8,1,8,2x,7,2,7,1x,8,1,8,2x,7,2,7,
{8}3bx,3,3,3/5,3,3,3/5,3,
4/6,6,6,6/4,6,6,6/4,6,
5b/2b,2,2,2/6,2,2,2/7,2,
3/8,8,8,8/2,8,8,8/1,8,
{2}8-5b[8:1]*q5b[8:1],1-4<6b[8:1],
{8}8-4[8:1],8,2-6[8:1],2,7-3[8:1],7,1-5[8:1],1,
8-4[8:1],8,1-6[8:1],1,8-3[8:1],8,{4}1,
{2}1b/8b,{16}2,2,7,7,1,8,1,8,
{8}1bx-4[8:1],1,5-8[8:1],5,3,{16}3,7,,,{8}2x/6x,
5x-8[8:1],5,1-4[8:1],1,7,{16}7,3,,6x/2x,,,{8}6x-3[8:1],
6,2-7[8:1],2,4,{16}4,8,,,{8}5x/1x,
2x-7[8:1],2,6-3[8:1],6,8,{16}8,4,,1x/5x,,,{8}1x-5[8:1],
2,3,4,6,{16}6,5,,5,{8}7,
8x-4[8:1],7,6,5,3,{16}3,4,,4,{8}2,
3x/5x,4,7/5,6,{16}5/3,,,7bx/5bx,,4bx/5bx,,,4bx/2bxh[16:3],
,,B7/B6/E7,,,{8}6bxh[4:1],,B1/B2/E2,4,5,
6bx-1[8:1],6,2-5[8:1],2,8,{16}8,4,,,{8}7x/3x,
2x-5[8:1],2,6-1[8:1],6,4,{16}4,8,,3x/7x,,,{8}3x-8[8:1],
3,7-4[8:1],7,1,{16}1,5,,,{8}2x/6x,
7x-4[8:1],7,3-8[8:1],3,5,{16}5,1,,6x/2x,,,{8}4x-8[12:1],
5,{4}6-2[12:1],{8}3,{16}3,1,,1,{8}4x,
5x-1[12:1],4,{4}3-7[12:1],{8}6,{16}6,8,,8,{8}5x,
4-7[8:1],4,8-3[8:1],8,6-1[8:1],6,2-5[8:1],2,
{16}8,8,,1,{8}1,{16}8,8,1x,2x,3x,4x,5x,6x,7x,8x,
{8}1bx,{16}1,8,,8,{8}6,{16}6,8,,8,{8}1,7/2,
8,{16}8,1,,1,{8}3,{16}3,1,,1,{8}8,7/2,
8,{16}8,1,,1,{8}3,{16}3,1,,1,{8}8,7/2,
1,{16}1,8,,8,{8}6,{16}6,8,,8,{8}1,2/7,
1,{16}1,8,,8,{8}6,{16}6,8,,8,{8}1,2/7,
8,{16}8,1,,1,{8}3,{16}3,1,,1,{8}8,7/2,
{16}1h[8:1]/2h[8:1],,,3/8,,,{8}7h[8:1]/8h[8:1],{16},1/6,,,{8}4/5,3/6,
{16}5h[8:1]/6h[8:1],,,4/7,,,{8}3h[8:1]/4h[8:1],{16},2/5,,,{8}8b/1b,2b/7b,
3bx/6bx,{16}5,4,,4,{8}2,{16}2,4,,4,{8}5,3/6,
4,{16}4,5,,5,{8}7,{16}7,5,,5,{8}4,3/6,
4,{16}4,5,,5,{8}7,{16}7,5,,5,{8}4,3/6,
5,{16}5,4,,4,{8}2,{16}2,4,,4,{8}5,6/3,
7,{16}7,8,,8,{8}2,{16}2,8,,8,{8}4,3/5,
2,{16}2,1,,1,{8}7,{16}7,1,,1,{8}5,4/6,
{16}7h[8:1]/8h[8:1],,,1/6,,,{8}1h[8:1]/2h[8:1],{16},3/8,,,{8}5/6,4/7,
{16}1h[8:1]/2h[8:1],,,3/8,,,{8}7h[8:1]/8h[8:1],{16},1/6,,,{8}2-5b[8:1]/7-4b[8:1],7/2,
E
&inote_5=(145){4},,,,{1}8-5b[4:5]*z4b[4:5],
{4},,,A3,
{1}3V15b[4:5]/2v5b[4:5],
{4},,,A3,
{1}7-4b[4:5]/1-4b[4:5],
{4},,,A3,
{1}2V86-4b[4:5]/7-3b[4:5],
{4},,,A3,
{16}6,5,7,4,8,3,1,2,1,8,7,6,1,2,3,4,
6,5,7,4,3/8,7,6,5,3,4,2,5,1/6,2,3,4,
7,8,6,1,5,2,4,3,4,5,6,7,4,3,2,1,
7bx,8,6,1,2bx/5bx,6,7,8,1bx,2bx,3,4,5,6,7,8,
2x,1,3,8,4,7,5,6,5,4,3,2,5,6,7,8,
2,1,3,8,4/7,3,2,1,7,8,6,1,2/5,6,7,8,
3,4,2,5,1,6,8,7,8,1,2,3,8,7,6,5,
{8}E4/B4,{16}E3,B5/E6,,E7,,,,,{8}Cfh[8:1],{4}B8/B1/E1,
{8}1/7,3/5,{16},4,,7,8,,,1/5,,3,{8}4,
6/8,4/6,{16},5,,2,1,,,4/8,,6,{8}5,
2/4,1/7,{16},8,,3,4,,,1/5,,7,{8}8,
2/4,3/5,{16},4/6,,,{8}5/7,{16}1,2/8,,5,{8}4/6,
2/8,4/6,{16},5,,2,1,,,4/8,,6,{8}5,
1/3,5/3,{16},4,,7,8,,,1/5,,3,{8}4,
3/5,1/7,{16},8,,6,5,,,1/5,,2,{8}1,
{4}5h[8:1]/6h[8:1],2h[8:1]/3h[8:1],{8}8/7,{16}3,4,3,4,{8}3,
2b/5b,3,{16}4/7>2[8:1],6,,,3,3,,4,,7,{8}5,
4/6,4/6,{16}5/2<7[8:1],3,,,6,6,,5,,2,{8}4,
2/5,3,{16}4/7>2[8:1],6,,,3,3,,4,,7,{8}5,
4/6,3,2/4,3,4/5,{16}2/4,2/4,,7/5,{8}5/7,
2/5,3,{16}5/7>2[8:1],6,,,3,3,,4,,7,{8}5,
4/6,5,{16}4/2<7[8:1],3,,,6,6,,5,,2,{8}4,
5/7,6,2/4,3,6/8,7,1/3,2,
{16}2,7,2,7,3,6,3,6,{8}4/5,{24}4/5,3/6,2/7,{4}1s5[8:1]/8z4[8:1],
{1}1b/8b,
,,,{8}2,
2h[16:9],{16},1,,,1,,,8,,,{8}8h[1:1],
,6,{16},6,,,5,,,5,,,{8}4,
4h[8:7],7,{16},7,,,6,,,6,,,{8}6h[8:5],
,8,{16},8,,,3h[8:3],,,1,,,{8}1,
7-5[16:1],4-2[16:1],{16},,,,5,3,6,4,7,5,{8}8,
2-4[16:1],5-7[16:1],{16},,,,4,6,3,5,2,4,{8}1,
7-5[16:1],4-2[16:1],{16},,,,5,3,5,3,6,4,{8}7<3[4:1],
,3>7[4:1],,7<3[4:1],,3,,2,
2-4[16:1],5-7[16:1],{16},,,,4,6,3,5,2,4,{8}1,
7-5[16:1],4-2[16:1],{16},,,,5,3,6,4,7,5,{8}8,
2-4[16:1],5-7[16:1],{16},,,,4,6,4,6,3,5,{8}2<6[4:1],
,6>2[4:1],{16},2,,,8,,,6,,,{8}3-7[16:1],
3,1-5[16:1],{16},8-4[16:1],,,3,,,2-6[16:1],,,{8}7-4[16:1],
7,5-1[16:1],{16},3-7[16:1],,,8,,,1h[16:3],,,{8}5h[8:1],
3-8[16:1],7-4[16:1],{16},7,,,1-5[16:1],,,8-3[16:1],,,{8}8,
6-1[16:1],4-7[16:1],{16},2-5[16:1],,,8-4[16:1],,,6-2[16:1],,,{8}6,
,7/3,{16},4/8,7/3,6/2,5/1-5[16:1],,,8-4[16:1],,,{8}8,
,3-8[16:1],{16},7-4[16:1],,,1-5[16:1],,,8,,,{8}6,
{16}3x,3,5x,5,4,4,6x,6,3,3,5x,5,4,4,6x,6,
3,3,4x,4,5,5,6x,6,3,3,4x,4,5,5,6x,6,
2b,1,3,8,4,7,5,6,3,4,2,5,1,6,8,7,
1,8,2,7,3,6,4,5,4,5,3,6,2,7,1,8,
2b,1,3,1,4,1,5,1,5,6,5,7,5,8,5,1,
4,8,3,7,2,6,1,5,8,4,1,5,2,6,3,7,
{4}4b>1[16:1],{32}8,7,6,5,8,7,6,5,{4}4b>1[16:1],{32}8,7,6,5,8,7,6,5,
{8}4b,{32}1,2,3,4,{8}5,{32}7,6,5,4,{8}3,{32}2,3,4,5,{8}6,{24}4/5,3/6,2/7,
{8}1/8,{24}1/8,2/7,3/6,{4}4b-1[16:1]/5b-8[16:1],4b/5b,{8}3-6[16:1]/7-2[16:1],1/5,
{2}3b/7b,{16}1x/8x,8x/1x,1x/8x,8x/1x,1x/8x,8x/1x,8x/1x,8x/1x,
{8}8b/1b,3/6,1-5[16:1],8-4[16:1],1,{16}8,1,,,{8}7-5[16:1],
8-4[16:1],7,8,{16}7,7,{8}2-4[16:1],{16}1-5[16:1],2,,1,,2,
{8}8/1,3/6,8-4[16:1],1-5[16:1],8,{16}1,8,,,{8}2-4[16:1],
1-5[16:1],2,1,{16}2,2,{8}7-5[16:1],{16}8-4[16:1],7,,8,,7,
{8}1/8,3/6,1-5[16:1],8-4[16:1],1,{16}8,1,,,{8}7-4[16:1],
8-3[16:1],7,8,{16}7,7,{8}2-5[16:1],{16}1-6[16:1],2,,1,,2,
{8}8/1,3/6,8-4[16:1],1-5[16:1],8,1,{16},7/2,,6/3,
2/1h[16:3],,,4,,,{8}7/8h[16:3],{16},5,,,{8}1b/8b,2b/7b,
8b/1b,3/6,1-5[16:1],8-4[16:1],1,{16}8,1,,,{8}7-5[16:1],
8-4[16:1],7,8,{16}7,7,{8}2-4[16:1],{16}1-5[16:1],2,,1,,2,
{8}8/1,3/6,8-4[16:1],1-5[16:1],8,{16}1,8,,,{8}2-4[16:1],
1-5[16:1],2,1,{16}2,2,{8}7-5[16:1],{16}8-4[16:1],7,,8,,7,
{8}1/8,3/6,1-5[16:1],8-4[16:1],1,{16}8,1,,,{8}7-4[16:1],
8-3[16:1],7,8,{16}7,7,{8}2-5[16:1],{16}1-6[16:1],2,,1,,2,
{8}1xv4[8:1],4>1[8:1],6,7,8xv5[8:1],5<8[8:1],2,3,
4x>1[16:1],4,{32}8,7,6,5,8,7,6,5,{16}4b/8xh[8:1],,,5/1xh[8:1],,,{8}3x/6x,
1/2,{16}6,8h[8:1],,7,{8}1h[8:1],{16}8,2h[8:1],,1,{8}3h[8:1],6,
8h[8:1],{16}5,1h[8:1],,4,{8}2h[8:1],{16}4,3,6,5,{8}3/8,1/5,
7/8,{16}3,1h[8:1],,2,{8}8h[8:1],{16}1,7h[8:1],,8,{8}6h[8:1],3,
1h[8:1],{16}4,8h[8:1],,5,{8}7h[8:1],{16}5,6,3,4,{8}2x/8x,4x/6x,
1xh[8:1],{16}5,2h[8:1],,5,{8}3h[8:1],{16}5,4h[8:1],,5,4,6,{8}3,
7h[8:1],{16}4,6h[8:1],,4,{8}5h[8:1],{16}4,5,{8}3,7h[8:1],1h[8:1],
{16}8-4[16:1],,,8,,,{8}1-5[16:1],{16},1,,,{8}3/4,5/6,
{16}7-2[16:1],,,7/3-6[16:1],,,{8}3/8-5[16:1],{16},8/4-1[16:1],,,{8}4/6,7,
{16}8/7-3[16:1],,,8-4[16:1],,,{8}1-5[16:1],{16},2-6[16:1],,,{8}4,3,
{16}1/2-6[16:1],,,1-5[16:1],,,{8}8-4[16:1],{16},7-3[16:1],,,{8}5,6,
{16}8/7p3[16:1],,,8-4[16:1],,,{8}1-5[16:1],{16},2q6[16:1],,,{8}4,3,
{16}1/2q6[16:1],,,1-5[16:1],,,{8}8-4[16:1],{16},7p3[16:1],,,{8}5,6,
{16}6/8h[8:1],,,3/1h[8:1],,,{8}5/7h[8:1],{16},4/2h[8:1],,,{8}4/5,4/5,
{16}2/4h[8:1],,,7/5h[8:1],,,{8}1/3h[8:1],{16},8/6h[8:1],,,{8}8/1,8/1,
{16}7/5h[8:1],,,6/8h[8:1],,,{8}2/4h[8:1],{16},3/1h[8:1],,,{8}2/7,4/5,
{16}4/2h[8:1],,,1/3h[8:1],,,{8}5/7h[8:1],{32}5,4,3,2,1,8,7,6,{8}5bx-2[8:1]*-8[8:1],5bx,
{1}A5f,
E
