&title=Black Out
&artist=Tsukasa(Arte Refact)
&first=0.085
&lv_5=13+
&des_5=Killer°
&inote_5=
(142){4},{16},,,,,,,,,,,,,,,,,Ch[16:55],
{1},,,{4},,{16},,{384}2bv4[2:3]*v4[2:3],
1b-5[384:575],{1},{4},,,{16},,,{64},,,{96},{4}E6,
E7,{8}E8,,,2h[8:3],
{16},,,,E8,E7,E6,E5,E4,E3,E2,E1,{4}E8,
2h[8:1]/B6,1h[8:1]/B5,8h[8:1]/B4,7h[8:1]/B3,
6h[8:1]/B2,5h[8:1]/B1,4h[8:1]/B8,3h[8:1]/B7,
E4,E3,{8}E2,{16},,,,7h[2:1]/E2,E3,
E4,E5,E6,E7,E8,E1,{8}E2,,,{4}7b/2b,
8V64[4:1],8,{8}3h[4:1],{16}2,1,8,7,6,5,
{4}4V28[4:1]*V28[4:1],4x/7h[16:11],{16},,6,5,4,3,2,1,
{4}8>4[4:1]*>4[4:1],8x/5h[2:1],{16},,6,7,8,1,2,3,
{4}4<8[4:1],4x/1h[2:1],{16},,2,3,4,5,6,7,
{4}8-4[8:1],8,{16}2,3,6,5,1,2,7,6,
{4}4-8[8:1],4,{16}6,7,3,2,5,6,4,3,
{4}8-4[8:1],8,{16}1,5,2,6,3,7,4,8,
{4}5-1[8:1],5/7v4[8:1],{16}7b/2b-5[16:1],,,2b/8bV61[8:1],,,{8}8b,
4-2[8:1],5,{4}4-8[8:1],{8}4,{16}5-7[8:1],5,,4,{8}5,
1-3[8:1],8,{4}1-5[8:1],{8}1,{16}8-6[8:1],8,,1,{8}8,
4V28[8:1],5,{4}4-8[8:1],{8}4/2x,{16}3-1[8:1],3,,4,{8}3,
5V71[8:1],4,{4}5-1[8:1],{8}5/7x,{16}6-8[8:1],6,,5,{8}6,
4-6[8:1],4,{4}4/2-4[8:1],{8}8/2-6[8:1],8xh[16:1],{16}2,7,{8}7,
5-3[8:1],5,{4}5/7-5[8:1],{8}1/7-3[8:1],1xh[16:1],{16}7,2,{8}2,
1b-6[8:1]/4b-7[8:1],2/3,{4}1/4,{8}8b/5b,{16}5,8,{8}5,5/8,
{16}5,7,5,7,5,6,5,6,{32}5x/E8f/B7/B8,4x,{16}3x,{32},,7x/B1/B2/E2f,6x,{8}5x,{32}1x/Cf,2x,3x,4x,
{4}5x-1[8:1],5,{16}4-8[8:1],,,5,{8}4,6,
{4}7/1-3[8:1],B7/B6/1-5[8:1],{16}7/1-3[8:1],,,7,{8}1,6,
{4}4-8[8:1],4,{16}5-1[8:1],,,4,{8}5,3,
{4}2/8-6[8:1],B2/B3/8-4[8:1],{16}2/8-6[8:1],,,2,{8}8,3,
3h[8:1]/5-1[8:1],6,{4}5/B2/B3,{16}4-8[8:1],,,5,{8}4,6,
7/1-3[8:1],2,{4}B7/B6/1-5[8:1],{16}7/1-3[8:1],,,7,{8}1,6,
6h[8:1]/4-8[8:1],3,{4}4/B7/B6,{16}5-1[8:1],,,4,{8}5,3,
2/8-6[8:1],7,{4}B2/B3/8-4[16:1],{16}8b/2bx-5[16:1],,,2b/7b-4[16:1],,,{8}7b,
1b-7[8:1],E5/E4,1-3[8:1],E6/E7,1-7[8:1],{16}4,4,1-3[8:1],5,{8}5,
1-7[8:1],E5/E4,1-3[8:1],E6/E7,1-7[8:1],{16}4,4,1,5,{8}5,
6x-4[8:1],E2/E1,6-8[8:1],E3/E4,6-4[8:1],{16}1,1,6-8[8:1],2,{8}2,
6-4[8:1],E2/E1,6-8[8:1],E3/E4,6-4[8:1],{16}1,1,6,2,{8}2,
3-6[8:1],2,{4}B7/B6/3v8[8:1],{16}B5/B4/3-1[8:1],,,4x,{8}3v8[8:1],5,
{4}6/3-6[8:1],B7/B6/3v8[8:1],{16}B5/B4/3-1[8:1],,,4x,{8}3,5,
8-3[8:1],7,{4}B4/B3/8v5[8:1],{16}B2/B1/8-6[8:1],,,1x,{8}8v5[8:1],2,
{4}3/8-3[8:1],B4/B3/8v5[8:1],{16}B2/B1/8-6[8:1],,,1x,{8}8,2,
{4}1V35[4:1],5V71[4:1],1>5[4:1],5<1[4:1],
{1}1s5b[2:1],
{2}6h[4:1]/2h[8:3],{384}7h[8:3],3h[384:95],{4},{16},,,{64},,,{96},{2}8h[4:1]/4h[8:3],
{384}1h[8:3],5h[384:95],
E
&lv_6=1
&des_6=
&inote_6=
(142){4},
E
