&title=ウミユリ积水潭
&artist=正在打電動的寒辰 feat. 吃没吃
&des=Muz
&first=1.45
&wholebpm=240
&lv_5=13
&des_5=Muz
&inote_5=
(240){4}5h[2:3],,,,4,
4,4,4b/3,
6,6/5,3,4/3,
7,7/5,2,4/2,
{8}6,6,4,4,5,5,3,3,
{4}5,5/4,{8}7/2,E7,B6,B5,
{4}3,3/4,6,6/5,
4h[8:1],5h[8:1],7/2,6/5,
7/4,4/3h[8:1],5/2,1/8h[8:1],
4x/5x,5x/4x,7b/2b,6h[8:1],
5/4-8[0.5##0.25],3,4/5-1[0.5##0.25],6,
5/4-8[0.5##0.25],3,5/4,6,
7/8>3[0.5##0.25],1,8/7<4[0.5##0.25],6,
7/8>3[0.5##0.25],1,{8}8/7,E2,E3,E4,
{4}4/5-1[0.5##0.25],6,5/4-8[0.5##0.25],3,
4/5-1[0.5##0.25],6,4/5,3,
2/1<6[0.5##0.25],8,1/2>5[0.5##0.25],3,
2/1<6[0.5##0.25],8,{8}1/2,E8,E7,E6,
{4}5/3-8[0.5##0.25],2,3/5-8[0.5##0.25],6,
5/3-8[0.5##0.25],2,3/5,6,
4/6<1[0.5##0.25],7,6/4>1[0.5##0.25],3,
4/6<1[0.5##0.25],7,{8}6/4,E8,E1,E2,
{4}8/2v4[0.5##0.25],3,2/8v6[0.5##0.25],7,
8/2v4[0.5##0.25],3,2/7v5[0.5##0.25],6,
7/1v3[0.5##0.25],2,1/7v5[0.5##0.25],6,
7/1,2,4h[4:1],8h[4:1],
1>4[0.5##0.25],5,6,5,
1<6[0.5##0.25],5h[8:1],4,5,
1>4[0.5##0.25],5,6,5,
1,5h[8:1],3,8h[8:1],
8<5[0.5##0.25],4,3,4,
8>3[0.5##0.25],4h[8:1],5,4,
8<5[0.5##0.25],4h[8:1],3,4,
8,4,{8}4,5,4,5,
{4},1>4[0.5##0.25],2,1x,
,8<5[0.5##0.25],7,8x,
,1>4[0.5##0.25],2,1x,
,8,8<2[0.5##0.75],8,
8x,{2},{4}1,
1h[4:3],{2},{4}8,
8-4[0.5##0.25],8,1-5[0.5##0.25],1,
{2},{8}4,5,4,5,
{4}2<7[0.5##0.25],2,6q3[0.5##0.25],6,
{2},{4}1,8,
7>2[0.5##0.25],7,3p6[0.5##0.25],3,
,5xh[8:1],{8}4,4,5,5,
{2}3/6,{4}5,6,
7,8,1,2h[8:1],
3>6[4:3],4h[8:1],5,5,
4h[8:1],5,5h[8:1],4h[8:1],
6>3[0.5##0.25],6,2q7[0.5##0.25],2,
{2},{4}8,1,
3<6[0.5##0.25],3,7p2[0.5##0.25],7,
,4xh[8:1],{8}5,5,4,4,
{2}6/3,{4}2,3,
4,5,6z2[0.5##0.5],6,
,,,2,
2>5[0.5##0.25],2,8<5[0.5##0.25],8,
1x-5[0.5##0.25],1,8-4[0.5##0.25],8x,
{2},5b/4b,
{4}2,1/8-4[0.5##0.25],7,8/1-5[0.5##0.25],
2,1/8-4[0.5##0.25],7,8/1-5[0.5##0.25],
2,1/8-4[0.5##0.25],7,8/1-5[0.5##0.25],
2,8/1,7,8/1,
2,1/8-4[0.5##0.25],7,8/2-6[0.5##0.25],
3,2/8,7,2/1,
4/7,8/7,5/2,2/1,
{8}4/7,6h[8:1],{4},3,5h[8:1],
4-8[0.5##0.25],3,4/6-2[0.5##0.25],7,
6/4-8[0.5##0.25],3,4/6,7,
{8}4,5,3,6,4,5,3,6,
{4}4h[8:1],2h[8:1],{8}8,E8,E7,E6,
{4}4q1[0.5##0.25],5,4/6p1[0.5##0.25],5,
6/4,5,4/6,7/8,
5/2,1/2,4/7,7/8,
{8}5/2,3h[8:1],{4},8b,1h[8:1],
8/7<4[0.5##0.25],6,7/8>3[0.5##0.25],1,
8/7,6,{8}8,7,1,6,
{4}2,3/5,{8}8,2,7,3,
6,4b,,3,5,2,6,1,
{4}7/8,{8}2,1,{4}2,{8}7,8,
7x,7x,,1b,,6,2,5,
{4}3-7[4:1],3x,5-1[4:1],5x,
2h[8:1],8,3,7h[8:1],
5/6pp7[0.5##0.25],7,6/5qq4[0.5##0.25],4,
5/6,7,{8}5,6,4,7,
{4}3,{8}1,8,2,7,3,6,
4,5b,,6,4,7,3,8,
{4}2/1,{8}7,8,{4}7,{8}2,1,
2x,2x,,7b,,2,6,3,
{4}4-8[4:1],4x,6-2[4:1],6x,
3h[8:1],5,{2}7b/1b,
E
