&title=[DX]Nerverakes
&artist=Taishi
&first=0
&des_5=AMH
&lv_5=14.0
&inote_5=(140){2},,2h[2:1],3q6[2:1],C,4h[2:1],5qq1[2:1],B3/B4/E4,
{4}6bh[4:3],,,Cf,
{8}8xh[8:3],1,2,1h[4:1],8>3[8:1],{16}8,7,{4}6h[4:1],
{8}3h[8:3],4,5,4h[4:1],3<6[8:1],{16}3,2,{8}1,1,
{8}8h[4:1],7,6,7h[4:1],5>2[8:1],{16}5,6,{4}7h[4:1],
{32}5,4,3,2,1,8,7,6,5,4,3,2,1,8,7,6,5w1[8:1],4,3,2,1,8,7,6,{4}5b,
{8}3/7h[8:1],{16}4,4,{8}6pp3[4:1],5,3,2,{4}1,
{8}4/1h[8:1],{16}5,5,{8}2pp5[4:1],6,7,8,1bx,1bx,
1/4h[8:1],{16}8,8,{8}3qq7[4:1],7,6,5,{4}4h[4:1],
{32}1,2,3,4,5,6,7,8,1,2,3,4,5,6,7,8,{4}1w5b[8:1],1b,
{16}6/4h[4:1],,,7,{8}7,8/5qq2[4:1],,A8/B8/E8,{4}A6/B6/E7,
{16}5h[4:1],,,4pp7[4:1],{8}4,3h[8:1],,,A2/D2/E2,A2/D2/E2,
{16}1h[4:1],,,8pp3[4:1],{8}8,7h[8:1],{4},6,
{8}5h[8:1],{16}4,3,{8}2h[8:1],{16}1,8,{8}7h[8:1],{16}6,5,{8}4,4,
{16}3b/5b,,,4,{8}4,3-5-8[4:1]/5-3-8[4:1],{4}3/5,B2/B6,
{16}2/6h[4:1],,,4,{8}4,3V17V13b[4:1]/7V53V57[4:1],{2}C,
{16}8/4h[4:1],,,6,{8}6,4/8,{4}2h[4:1]/6q6[4:1],C,
{8}3h[8:1],{16}4,5,{8}6h[8:1],{16}7,8,{4}1h[8:3],{24}2-6[8:1],3,4,5,6,7,
{1}8/Cf/2b-6V42V86b[4:13]*-5V31V75[2:7],,,,{16}6,
4,5,3,4,2,5,3,6,4,7,5,6,4,5,3,
8,2,7,1,7,1,8,2,1,3,8,2,7,1,6,8,
5bh,1,5h,5,5h,2,5h,5,5h,8,5h,5,5h,3,5h,5,
5h,7,5h,5,5h,4,5h,6,5h,5,6h,4,7h,3,8h,2,
{2}1bxh[2:1],{32}4w8b[8:1],3,2,1,8,7,6,5,{8},,6/2,
{16}3,5,4,6h[16:1],,4,5,3,6,4,{8}5,2/7,
3b/6b,{16}4,5,{8}4,6/3,{16}1-5b[8:1]/8-4[8:1],2/7,{8}3/6,{4}1b/8b,
{8}7/2,{16}2,7,{8}2,3/6,{16}6,3,{8}6,4/5,4/5,
{16}6,3,5,4,6<5[8:1],3,5,4,{4}6xh[4:1],{48}7,8,1,2,3,4,{8}5,
4/7,{16}5,6,{8}5,3,5/2,{16}4,3,5,4,{8}6,
1/6,{16}8,7,{8}8,2,8/3,{16}1,2,8,1,{8}7h[8:1],
{16}5,7,4,7,3,7,2,7,1,7,8,7<1[4:1],{8}8,8bh[2:1],,,
{32},7,6,5,4,3,2,1,8,7,6,5,4,3,2,1,{4}4x/8x-4b[8:1],
1b/Cf/8b<5[8:1]*>3[8:1],8,{16}8,1,7,2,8,1,6,3,
5,4,6,3,5,4,7,2,8,1,7,1,6,1,5,1,
5,1,5,2,5,3,5,4,5,4,6,4,7,4,{8}8,
4/8,7/3,2/6,5/1,{16}1/5,2/6,3/7,4/8,{8}5b/1b,3/7,
{16}1-6[8:1]/8-3[8:1],1/8,{8}2/7,,,4/5,{16}E4,E6,{8}B2,E7,
B3h[8:1],{16}8x,7x,{8}6x,B6,B7h[8:1],{16}1x,2x,{8}3xh[8:1],8bx,
{16}7,4,6,4,5,4,4,4,3,4,2,4,1,4,8,4,
{24}8,7,6,5,4,3,2,1,8,7,6,5,{32}1,2,3,4,5,6,7,8,1,2,3,4,5,6,7,8,
1bxqq2V86>2b[1:2]/5bxqq6V42<6[1:2],2/6x,3/7x,4/8x,
E
