&title=ちっちゃな私
&artist=マサラダ
&first=0
&des=←: 私 →: ちっちゃな私
&lv_7=協
&inote_7=(143)
{4},,,,,,,,
{8}3$b/4$b/5h[4:1]/6,,1$,7,2$/7h[4:1],,3$/5h[8:1],4$/6,4$/6h[4:1],,2$,5,3$/5h[4:1],,1$,2$/6,4$/3$/5h[4:1]/6,,1$,7,2$/7h[4:1],,3$/5h[8:1],2$/6,1$/7h[4:1],,,56,5h[4:1]/6h[4:1],,1$,2$,
{8}3$/4$/5h[4:1]/6,,1$,7,2$/7h[4:1],,3$/5h[8:1],4$/6,4$/6h[4:1],,2$,5,3$/5h[4:1],,1$,2$,4$/3$/5h[4:1]/6,,1$,7,2$/7h[4:1],,3$/5h[8:1],4$/6,4-1[8:1]/7h[4:1],,,,{4}3$b,,
{8}7h[8:5],,5,5,6,6,7,7,8,,,{16}2$,2$,{4}1$,,{8}6,5,,5,7h[4:1],,8,8,6,,,{16}1$,1$,{4}3$,,
{8}7h[4:1],,8,8,7,,5,5,6,,,{16}4$,4$,{4}3$,{8}8h[4:1],,5,,6,6,7h[4:1],,8,8,6,,,{16}1$,1$,{4}3$,
{8}8,7,6,6,5`5!-8[8:1],6,7,,1$,2$,3$,3$,4-1[8:1],3$,2$,,8`8!-5[8:1],7,8,,1-4[8:1],2$,1$,,6`6!V85[4:1],,6,,3V14[4:1],,3$,,{4}7h[4:5],5`5!-8[8:1],,8x,6,8,,
{4}5,2h[4:5]/6h[4:5],4-1[8:1]/8/8!-5[8:1],,1$x/5x,3$/7,1$/5,{8},6xb,2$xb,,
{8},,6/5h[8:5]/3$/4h[8:5],,1$x/8x,1$x/8x,7x/2$x,7x/2$x,3$x/6x,4$x/5x,3$x/6x,,
{4}8`8!-5[8:1],,1-4[8:1],,2h[4:3]/7h[4:3],{8}1$/8,1$/8,3$/6,3$/6,{1}4$qq1[4:2]/5/5!pp8[4:2],
{8}5h[8:5]/6/3$/4h[8:5],,1$/8,1$/8,2$/7,2$/7,3$/6,4$/5,3$/6,,
{4}8`8!-5[8:1],8,1-4[8:1],1$,7h[4:3]/2h[4:3],{8}3$/6,3$/6,4$/5,4$/5,4b>1[4:1]/5b/5!<8[4:1],,,,,,7xh[1:2]/8xh[1:2],,
{4}3$/4$,{8}2$,2$,{16}3$,4$,3$,,{8}5$,4h[4:1],,5$,6$,4$,3$,,1xh[1:2]/2xh[1:2],,
{8}7x,6x,{16}5x,5x,,4x/5x,,,{8}3,4,5h[8:5],,7,6,6,7,,{4}7xh[1:2]/8xh[1:2],
{8}2h[4:1],{24}3$x,4$x,5$x,{8}6$xb,,{16}3$,4$,{8}3h[4:1],2$,1h[4:1],2$,4h[4:1],3$,2h[8:3],,1$,1$,1xh[8:15]/2xh[8:15],,
{8}56,78,56,3x/4x,4x/5x,5x/6x,7xh[8:1]/8xh[8:1],,7h[256:1]/8h[256:1],,7h[256:1]/8h[256:1],,7h[4:1]/8h[4:1],,
{8}4$,3h[2:1],5,6h[2:1],4$,2h[2:1],5,7h[4:1],1$,3$/8x,{24}6,5,6,{8}1h[8:1]/2h[8:1]/5,7,7h[4:1]/8h[4:1]/2$/1$,,1$/2$,3$,4h[8:3],6,5h[8:3],2$,3h[8:3],7,6h[8:1],
{8}1$b/8b,,2$/7,4$/5,2$/7,4$/5,,
{8}2$/3$,1$,4$,8b,5b,2$,3$,7b,6b,1h[4:1]/8h[4:1],2$/7,2$/7,{16}2$/7,3$x/6x,4$x/5x,,{8}4$xb/5xb,,
{8},2xh[4:1],4$/5,3$/6,2$/7,1$/8,2$/7,3$/6,4$/5,{24}2$x/7x,3$x/6x,2$x/7x,3$x/6x,2$x/7x,3$x/6x,2$x/7x,3$x/6x,2$x/7x,3$x/6x,2$x/7x,3$x/6x,2$x/7x,3$x/6x,2$x/7x,{4}3$x/6x,,
{64}B6,B7,,,,,,,{8},,,{64}B3,B2,,,,,,,{8},,,
{8}5h[8:7]/6,,,7,6,6,7h[8:1],,{1}5h[1:2]/7h[1:2],{8}4h[8:7]/3$,,,2$,3$,3$,2h[8:1],,{1}4h[1:2]/2h[1:2],
{8}5h[8:7]/6,,,7,6,6,7h[8:1],,{1}5h[1:2]/7h[1:2],{8}3$/4h[8:7],,,2$,3$,3$,2h[8:1],,{1}2h[2:3]/4h[2:3],
{8}5h[2:3]/6,,,6,7h[1:1],,,,3$/4h[2:3],,,2$,3h[1:1],,,,5h[2:3]/6,,,7,8h[1:1],,,,3$/4h[2:3],,,1$,2h[1:1],,,,7/6h[1:2],,,8,8h[1:2],,,,1h[1:1]/2$,,,3$,3h[1:1],,,,,,,,,,
{8}7,,{2}5h[8:11]/6h[8:11],{8}2$,,3$/4$,3$/4$,{4}3h[2:1]/4h[2:1],,,{8},
{32}E8,B7,B6,E6,{8}A4,B3,E2,{32}E8/E4,B7,B6,E6,{8}B2,A1,{32}D8/D4,A7,D7,A6,{8}D6/D3,
{8}D2/8b,7/8/4$,6/8/3$/4$,5/8/4$/2$,5b/8b/4$b/1$b,5/7/2$/4$,5/6/4$/3$,5/6/3$/4$,
{8}6b/5hb[8:5]/3$b/4hb[8:5],,1$x/8x,1$x/8x,7x/2$x,7x/2$x,3$x/6x,4$x/5x,3$x/6x,,
{4}7/8/8!-5[8:1],,1-4[8:1]/2$,,2h[4:3]/7h[4:3],{8}1$/8,1$/8,3$/6,3$/6,{1}4$qq1[4:2]/5/5!pp8[4:2],
{8}5h[8:5]/6/3$/4h[8:5],,1$/8,1$/8,2$/7,2$/7,3$/6,4$/5,3$/6,,
{4}7/8/8!-5[8:1],78,1-4[8:1]/2$,{8}1$/2$,3$x/6x,{8}7h[4:3]/2h[4:3],{16},3$x/6x,{8}3$/6,3$x/6x,4$/5,4$/5,4b-1[8:1]/5b/5!-8[8:1],,,,1xb-3[8:1]*-4[8:1]/8xb`8!-6[8:1]*-5[8:1],,,,
{8}7b/8hb[1:1]/2$b/1hb[1:1],,2$/7,2$/7,6/3$,6/3$,4$/5,3$/6,4$/5,,
{4}7/8/8!-5[8:1],58,1-4[8:1]/2$,1$b/4$b,3h[4:3]/6h[4:3],{8}4$/5,4$/5,2$/7,2$/7,{1}1$pp4[4:2]/8/8!qq5[4:2],
{8}7/8h[1:1]/2$/1h[1:1],,2$/7,2$/7,6/3$,6/3$,4$/5,3$/6,4$/5,,
{4}7/8/8!v5[8:1],68,1v4[8:1]/2$,1$b/3$b,7h[4:3]/2h[4:3],{8}3$/6,3$/6,4$/5,4$/5,4b>1[4:1]/5b/5!<8[4:1],,,,,,Cf,,
{4}7hb[4:1],8h[4:3],6,{8}7/1h[4:3],7,6h[4:2]/3$,,8/2$,2$,7h[4:2]/3h[4:2],,1$/8,8,2h[4:2]/6h[4:2],,1$/8,1$,7h[4:3]/3h[4:2],,1$/5,5,2h[4:3]/6h[4:2],,4$,4$,3h[4:2],,
{8}8,8,{8}7h[4:1],,8h[4:3]/1$,1$,6/2h[4:1],,{8}7/1h[4:3],7,6h[4:2]/3$,,8/2$,2$,7h[4:2]/3h[4:2],,1$/8,8,2h[4:2]/6h[4:2],,1$/8,1$,5h[4:5]/3h[4:2],,1$/7,7,4h[1:2]/6h[4:3],,2$,2$,3h[2:3],,,,
{8}5b/6b,,,7,5h[2:1],,6,7,8,,
E
