&title=YOUNITHM
&artist=大国奏音
&first=0
&lv_5=14+
&des_5=sim
&inote_5=
(260){4},,,,,,,,{1}5bx/4bxh[1:3],
B5,
B5,
5h[1:1],
2h[1:2],
B5,
7h[2:1],
5h[2:1]/3h[2:1],
{2}2bx/8bxh[1:3],E7,
E6,E5,
E4,E3,
{8}1h[1:1],{16},,,,E8,E7,{2}E6,
{1}5h[2:1],
6xh[2:1]/4h[4:3],
3xh[2:1]/5h[4:3],
{4},1/8,7/2,3/6,
{2}4b/5h[2:1],7h[2:1],
1h[2:1],3h[1:1],
{4}7h[2:1],,,7/3-6[16:5],
,7-2[4:1],,4qq1[16:27]*pp7[16:27],
{1}4,
{4},,,,E2,
E3,E4,E7/B4h[4:5]/E5h[1:1]/B5h[4:3],
,,,,{2}1bx-6[4:1],
4h[2:1],
2h[2:1],8h[2:1],
6h[2:1],{4}5>2[2:1],5,
,E8/B7/B8,,3,
{1}2bv5b[8:3]/8v5[8:3],
1-4<5[8:3]/8b-5>4b[8:3],
8b-4-1b[8:3]*-5[8:3],
2b<1-5b[8:3]/8>1-5[8:3],
{2}E1f/B8f/B1f/1x>8[4:13],E8,
E7,E6,
E5,E4,
E3,E2,
{4}5,5,4,4,
6,6,3,3,
2/5,2/5,3/6,3/6,
{16}1,2,3,4,8,7,6,5,1,8,7,6,5,4,3,2,
{4}1bx/8bx-4[8:1],2x-5[8:1],6x-1[8:1],3x-8[8:1],
7x-4[8:1],1x-5[8:1],8x-4[8:1],3x-6[8:1],
{8}7h[1:1],,,,,8x,8x,8x,
{16}1,2,3,4,1,2,3,4,8,7,6,5,8,7,6,5,
{4}4/8-3[8:1],4-7[8:1],{8}2,2h[4:1],,1b-6[8:1],
,4,{4}4xh[8:1],{8}3/5,3xh[8:1]/5xh[8:1],,1,
{16}8bx/2h[4:1],7,6,5,{8}4,8,{16}1bx/7h[4:1],2,3,4,{8}5,1,
{16}8,7,6,5,1,2,3,4,8,1,2,3,4,5,6,7,
{4}8bx/1bx-5[8:1],7-4[8:1],3-8[8:1],6-1[8:1],
2-5[8:1],8-4[8:1],1-5[8:1],6-3[8:1],
{8}2h[1:1],,,,,1x,1x,1x,
{16}8,7,6,5,1,8,7,6,5,4,3,2,{4}1/8,
{16}6bx,5x,6x,5x,{8}6x,{16}3bx,4x,3x,4x,{8}3x,,2,
{16}1bx/3h[4:1],8,7,6,{8}5,1,{16}8bx/2h[4:1],7,6,5,{4}4,
{8}2-5[8:1],1,2,7-4[8:1],8,7,{4}1h[4:1],
{16}7,6,5,4,1,2,3,4,7,6,5,4,3,2,1,8,
{4}7/3,{8}6,7,8x-4[8:1],1,{4}2,
3h[4:1],{16}4,5,6,7,{4}8h[4:1],6-3[8:1],
{8}8x-5[8:1],1,2,3x-8[8:1],4,5,6x-3[8:1],7,
8,1x-4[8:1],7,1x,{16},,6,5,{8}6,7/4,
{4}7/4h[4:1],{16}2,1,8,7,3/6,2,1,8,7,6,5,4,
{4}3b/8b-5[8:1],{8}8b/3b,2-6[16:3],,2x,,8,
7,6,5,4-1[8:1],,6h[4:1],,2,
{4}3b/7b,{16}4,3,2,1,8/4,5,6,7,{4}8b/4b,
{8}4,4,5,5,3,3,6,6,
2x-5[8:1],2x,7x-4[8:1],7x,1x-5[8:1],1x,8x-4[8:1],8x,
1,1,7,7,2,2,8,8,
2bx-6[8:1],2x,1bx-5[8:1],1x,8bx-4[8:1],8x,7bx-3[8:1],7x,
1bx,{16}E2,E3,{8}E4,8bx,{16}E8,E7,{8}E6,3b,{16}E3,E2,
{8}E1,6b,{16}E7,E8,{8}E1,{16}3,4,5,6,7,8,1/5,2/6,
{4}3bx/7bx-3[8:1],{8}7b,1bs5b[8:1],,1,,6,
{16}4x,3,2,1,4/8,5,6,7,3/8,4,5,6,7,8,1,2,
{8}3/4b,5/2b,,4/6b,,7b/8,,2/1b,
{16}3b/8,7,6,5,4/3,5,6,7,8/1,2,3,4,5/6,4,3,2,
{8}8b/1,2b/7,,7b/4,,5b/6,,4b/3,
{16}2b/5,6,7,8,1/2,8,7,6,5/4,3,2,1,8/7,1,2,3,
{8}4/5b,3b/6,,2b/1,,2b/5,,3b/4,
4b/5,5b/6,,6b/1,,3b/8,,5b/3,
{6}6/2b,7b/3,4b/6,5b/2,{24},,{8}4,5,
{6}4x/3x,3x/2x,2x/1x,1x/8,7/8x,7x/6,
6x/5,6,6,3,3,3,
{16}8b/E3,B3,{24}B4,7,,,,{6}6,{48}1b/E7,,,B6,,,{24}B5,2,,,,{6}3,
{16}8/2h[4:1],7,6,5,{4}4,{16}1/7h[4:1],2,3,4,{4}5,
{16}6,5,4,3,2,1,8,7,3/6,4,5,6,7,8,1,2,
{6}3/4b,6/5,7/3,{24}8/1h[4:1],,,2x,3x,4x,{4}5x,
{6}6/5b,3/4,2/6,{24}1/8h[4:1],,,7x,6x,5x,{4}4x,
{12}4x,3,2/5x,6,7/3x,2,1/6x,7,8/4bx,3,2/5bx,6,
{16}1b/7,8x,1b,8x,1b,8x,1b,8x,1b,8x,1b,8x,1b-5b[8:1],8x,1b,8x,
{2}Cf/1b>8[4:13],E7h[1:1],
,B7/B6,
,E3h[1:1],
,B2/B3,
{1}2x<3[2:7],
,Ch[2:1],
{2},,B2/B3/E3/Ch[1:2],
E1,
E2,E3,
E4,{4}4qq1b[1:1],5pp8[4:3],
,,,,{1}B2h[1:4],
B7h[1:3],
B3h[1:2],
B6h[1:1],
Cf,
C,
E7/E3,
{4}B7/B6/B3/B2,{12}E7,E6,E5,E4,E3,E2,E1,E8,E7,
{1}E6f/1bxw5[2:1],
Cf/8bxw4[2:1],
{2}2-7[4:1],6-3[4:1],
{4}4w8[8:1],4,{16}2,3,4,5,6,7,8,1,
{4}2b/6b,{8}7-4[8:1],8,{4}7,1/2,
{8}6,6,5,7,3,4,2,8,
8,{16}2,1,2,1,{8}2,3/8,4/6,,7,
{16}8/1,2,3,4,7,6,5,4,1,8,7,6,5,4/8,3/7,2/6,
{4}1/5,{8}2-5[8:1],1,{4}2,{8}6-1[8:1],4,
{4}6,{16}3,4,{8}3,5/2,3/6,{4}7/4-8[8:1],
4/6-1[8:1],6/2-5[8:1],{8}8,8,7,6,
{4}5w1[8:1],5,4w8[8:1],4,
{8}2,1,2,8,{24}2,3,4,6,7,8,{8}2,2,
7,8,7,1,{24}7,6,5,3,2,1,{4}8/7,
{8}6/1,6,2/5,2,6/3,6,4/5,4,
{16}6,7,8,1,5,6,7,8,4,5,6,7,5x,4x,3x,2x,
{4}1-4[8:1]/6>4[8:1],6b/1b,{8}3,3,5,2,
{4}8>3[8:1],8<5[8:1],8-3[8:1],8-5[8:1],
8,{16}5,4,3,2,{8}1,7,2,6,
{4}3-8[4:1],8-5[4:1],{2}5-2[4:1],
{8}8,7,6,5,1,2,3,4,
8,1,7,2,6,3,5,4,
5,7,5,8,5,1,5,2,
{4}5bv8[8:1]*v2[8:1],5b,1bv4[8:1]/7bv4[8:1],1b/7b,
{12}2,3,4,1,2,3,7,6,5,8,7,6,
4,3,2,1/8,7,6,3/5,2,1,8/7,6,5,
2,1,3,8,4,7,{16}4,5,6,7,8,1,2,3,
8b/4,7,6,5,4,3,2,1,{24}5b,6,7,8,1,2,3,4,5,6,7,8,
{4}1bV36[2:1],4,6V84[2:1],1,
4-7-2-5[4:3],7,2,6,
8-5[8:1]*-3[8:1],8,7v4[8:1]/1v4[8:1],7/1,
5>2[4:1],2<7[4:1],7<4[4:1],4,
{8}2b,{16}6,5,{8}6,1b,{16}5,4,{8}5,2b,{16}6,5,
{8}6,1b,{16}5,4,{8}5,2,1,8,7,
{4}5V31[4:1],1V75[4:1],5>1[4:1],8xh[2:1],
{8},,,,7b/1b,6/2,{4}5/3,
8V63[2:1],5,3V15[2:1],8,
5-8-3-6[4:3],1,4,2,
1-4[8:1]*-6[8:1],1,2v5[8:1]/8v5[8:1],2/8,
3<6[4:1],6<1[4:1],1>4[4:1],4,
{8}5b,6,7,8,4,5,6,7,
2b,2,3/1,1/3,7,7,6/8,6/8,
1b/5b,1/5,2b/6b,2/6,3b/7b,3/7,4b/8b,4/8,
{16}5b/1,4,3,2,6b,5,4,3,7b,6,5,4,8b,7,6,5,
{4}4b-7[8:1]/8-3[8:1],8b/4,2b-5[8:1],2/8b-4[8:1],
8/3b-8[8:1],3/5b-1[8:1],5/2b-6[8:1],2/7b-4[8:1],
7/3b-8[8:1],3/5b-1[8:1],5/4b-8[8:1],4/6b-3[8:1],
6/1b-4[8:1],1/5b-8[8:1],5/3b-6[8:1],{8}3/6,7,
{4}8b<5[8:1],8/2,4b>1[8:1],4/6,
3b-6[8:1]/7b-2[8:1],7/3,5b-2[8:1]/1b-6[8:1],5/1,
{8}3b,3b,2/5,2/5,6b,6b,7/1,7/1,
2b-6[8:1],2b,7b-3[8:1],7b,1b-5[8:1],1b,8b,8b,
2bh[8:1],{16}7b,6,{8}5,3bh[8:1],{16}8b,7,{8}6,4bh[8:1],{16}1b,8,
{8}7,6/5,4/2,{16}1b,8,1,8,1,8,1,8,{8}1,
6bh[8:1],{16}3b,2,{8}1,7bh[8:1],{16}4b,3,{8}2,8bh[8:1],{16}5b,4,
{8}3,2/8,6/5,{16}3b,4,3,4,3,4,3,4,{8}3,
{12}6b,7,8,5,6,7,3,2,1,4,3,2,
{16}5b,6,7,8,5,6,7,8,4,3,2,1,4,3,2,1,
{24}6b,5,4,3,2,1,8,7,6,5,4,3,2,1,8,7,6,5,4,3,2,1,8,7,
{32}2b,3,4,5,6,7,8,1,2,3,4,5,6,7,8,1,2b,3,4,5,6,7,8,1,2,3,4,5,6,7,8,1,
{64}2b<3b[0.2308##4.8462],A7f,{32}B7f,Cf,B3f,{8}A3f,{1},,{4},,,{16}E8,
{48},E7,,,,{12}E6,E5,,,{2}B3,
{1}C,
,5h[4:3]/4h[1:2],
{2},6h[1:4],
{4},3,2,4,
3,2,5,4,
3,4,3,2,
1,{12}2,3,4,{4}5,8/7,
E2,E3,E4,E7,
E6,E5,B7/B8,B6/B1,
B2,B3,B4,B5,
,E7,C,E3,
{1}B5/B4/E5f/1x<1b[4:13]*>1b[4:13],
E
