&title=IRIS OUT(Touch)
&artist=米津玄師 劇場版『チェンソーマン レゼ篇』主題歌
&first=2.41
&seek=0.00
&wait=0.00
&wholebpm=135
&demo_seek=
&demo_len=
&des_5=じょーじ
&desid_5=001 ®ulation_5=Touch
&videourl= ¬ify_c_lv=5
&create_date=20260221
&creatorscomment=AstroDX / maipadPLUS 3.0対応譜面
&lv_5=13+
&inote_5=
(135)
{4},,,4h[8:1]/5h[8:1],
{8}
3pp5[8:1]/8,,4v7[8:1],,1^3[8:1],,5q1[8:1],,6^3[8:1],,2V48[4:1],,8,,5,5,
6q4[8:1],,3v5[8:1],,2^8[8:1],,5-1[8:1],,7-4[8:1],6x,3^1[8:1],3-5[8:1],,,C,,
6qq4[8:1]/1,,5v2[8:1],,8^6[8:1],,4p8[8:1],,3^6[8:1],,7V51[4:1],,1,,4,4,
3-1[8:1]/8^6[8:1],4x,8v3[8:1]*-4[8:1],,8,,15,3x/7x,48,1x/6x,3/5-7[8:1],18,
5^3[8:1]*-1[8:1],,5,,
4h[8:1]/8,2,8h[8:1]/4,6,4h[8:3]/8,2>8[4:1],,2,,1,1,8,7-4[8:1],6x/4x,1,2,
3-1[8:1],3,4,5,1,6-4[8:1],2,6,1,1,8z4[4:1],7h[4:1],8,,A8/D8/D1,,
3-6[8:1],2h[8:1],3,1,5-2[8:1],6h[8:1],,8-4-7^6[16:5],,8x,1x,2,3^1[8:1],4x,3,
5h[8:8],1,6,7,2,1,6V84[4:1],,6,5bx-1[8:1]b,,4bx-2[8:1]b,,6bx-8[8:1]b,,
1,1,
4<8[16:3],4,B2/B3/E3,,5v8[8:1],,A7/E7/A6,,4-8^6[4:1],4,A1/E2/D2,,
5-2^4-8[8:3],,E8/E7/B7,,6-4[8:1],6,E1/B1/E2,3,3V51[4:1],3,A7/E8/D8,,
7-4[8:1],6,B2/B3/E3,1h[8:1],3<1[4:1],,C,,
,,
2-4[8:1]/C,,
,,6^8[8:1]/C,,
,,
2^4[8:1]/C,,
,,6-8[8:1]/C,,
4h[8:1],,3h[8:1]/4h[8:1],,64,25,5-8z4^1[4:3]b*-8z4v1[4:3]b/7,35,
,,
,,
,,
,,
5b-1[8:1]/6b-8[8:1],,56,,43,43,2^5[8:1]/5^8[8:1],,2x/5x-2[8:1]*p1[8:1],,
,,
{16}7,7,8,,{8}1^6[8:1]/6,25,
{8}1v4[8:1]/4,3,1p5[8:1]/5,7,14,2,1-5[8:1]/6,3/8-6[8:1],1-3[8:1],8-4[8:1],1-6<4[16:5]b,8,
1,,Cf,,
4b-8[8:1]/3b-1[8:1],,43,,56,56,7^4[8:1]/4,8,3^8[8:1],2,5w1[8:1],6,5,,
3,3,1-5[8:1],5,1,7,8-4[8:1],4,8,2,2^5[8:1]/6^1[8:1],,2pp7[4:1]*pp8[4:1],,A2/E2f/B2,,
,,
{8}
1p5v8[4:1]/6,3,,,4-1[8:1]*^1[8:1],7,
,,
6v8-5[4:1],2,
,,1v4[8:1]*p4[8:1],7,
,,
3v2-4[4:1],8,
,,
5q1[8:1]*-1[8:1],6,
,,
4-6^5-2[4:1],8,
,,
8-3-5-7[8:3]*v2[8:1]b,6,
,,
,
{24}8x,1x,2x,
{24}6x,,6,4,,4,5,,5,
{24}3,,3,4,,4,5,,5,1,8,7,5,,5,6,,6,4,,4,1,,
{24}2x/8x,,,2x/8x,,,6,5,,5,
{24}7,,7,5,,5,4,,4,3,,3,8,,1,4,,3,7,,8,5,,4,
{24}1,,1,2,,2,3,,3,4,,4,
{8}1-6-8-4[8:3],,A2/E3/A3,,
{8}3hb[4:2],,,,
{16}4,,,45,,,56,,5hx[4:2]/6x,,,,
,,,,6,5,,7,8,,16,,
{8}5xv7-1[4:1]/2x,,
,,
{16}3,3h[8:1],,4,3,,54,,
{16}6hx[16:3]/5x,,,8h[16:3],,,2h[16:3],,,4h[16:3],,,
{8}1-6[8:1]b,7h[8:3],1b,,5h[4:1],6,7h[8:1],
{24}5,,6,4,,5,3,,4h[8:1],,,3,4,,5,4,,3,4,,2h[8:1]/1,,,8-3[8:1],1,,7,8-4[8:1],,,
{8}5h[8:3],8b,,1-6[8:1],3h[8:3],1b,,
{8}8-2[8:1]b,4h[8:7],8b,,
,,
,,
{24}3,,3,5,,5,
{8}4pp1[4:1],2hx[8:1]/1x,4,,3h[4:1],,
{24}6,,6,4,,4,
{8}5pp4[4:1],7hx[8:1]/8x,5,,1h[4:1],,
{24}2,,2,4,,4,3,,,1x/2x,,,6,,6,4,,4,5,,,7x/8x,,,2,,2,4,,4,
{24}3,,3,2,,2,1-6-8-4[8:3]b,,1,8,,,
{8}1-4[8:1],,
,,
,,
7^5[8:1]/C,,
,,3-1[8:1]/C,,
,,
7-5[8:1]/C,,
,,3^1[8:1]/C,,
5h[8:1],,6h[8:1]/5h[8:1],,35,74,4-2[8:1]/2,6/4-8[8:1],4-1[8:1],4-7[8:1],
4,4,
{32}1p8[32:8]b,2,3,4,5,6,7,8,
{8}1h[16:3],,E5f/B5/B4/A4/A5,,
{8}3-8-6-2-4[8:4]/E1,,
,,
E7,,5-2^3-7^6-1[8:5],,E5,,
,,E3,,
{8}E1f/B1/B8/4b-7^6-2^3-8[8:4],,
E7,,
,,E5,,
{8}1/C,7/C,3/C,5/C,
{32}1p8[32:8]b,2,3,4,5,6,7,8,
{8}1h[16:3],,E5f/B5/B4/A4/A5,,
{24}
28,,,3,4,3,5,,5,2,,,78,,,6,5,6,4,,4,
8x,7x,6x,5x/4x,3,2,8,7,6,
1x/5x,2,3,4/5,6,7,
2x/8x,3,4,6,7,8,
2h[8:1],,,
8,7,6,1x/5x,8,7,6,5,4,
{8}37,21,5-8z4^1[4:3]b*-8z4v1[4:3]b/3,78,
,,,,
,,
,,
{16}
5b-1[8:1]/6b-8[8:1],,,,65,,,,
3,3,4,,2v4[8:1]*^4[8:1]/5,,16,,2b^7[8:1]*v7[8:1],,,,2,,,,
3,5,4,6,5,,47,,
{8}
1-5[8:1]/2,38,12,8,8-4[8:1]/7,61,87,1-6[8:1],5<3[4:1],1,5,,
4w8[8:1]b,,Cf,,
{8}3bxp7[8:1]/7bxp3[8:1],,37,,
{16}A8/A4,D1/D5,A1/A5,D2/D6,A2/A6,,C,,
{8}3x/7x,5,1xv4[8:1]/7xv4[8:1],4,1x,,
6,6,8-4[8:1],4,8,2,1-5[8:1],5,1,7,7^4[8:1]/3^8[8:1],,7qq2[4:1]*qq1[4:1],,A7/E8f/B7,,
,,
{8}
8q4v1[4:1]/3,6,,,5-8[8:1]*^8[8:1],2,
,,
3v1-4[4:1],7,
,,8v5[8:1]*q5[8:1],2,
,,
6v7-5[4:1],1,
,,
4p8[8:1]*-8[8:1],3,
,,
5-3^4-7[4:1],1,
,,
1<3[4:1],6,
{48}A1,D1,A8,D8,A7,D7,A6,D6,A5,D5,A4,D4,
{8},
{24}
7x,6x,5x,1x,2x,3x,8x,7x,6x,
2x,3x,4x,1x,2x,3x,7x,6x,5x,8x,7x,6x,
2x,3x,4x,1x/5x,2x,3x,4x,5x,6x,7x/8x,1x,2x,
3x/5x,6x,7x,8x/4x,5x,6x,7x,8x,1x,2x/4x,5x,6x,
{32}
1x,2,3,4,1x,2,3,4,8x,7,6,5,8x,7,6,5,
{24}
2x,,2,4,,4,5,,5,6,,6,
5,,5,4,,4,3V51-4[16:5]b,,3,5,,5,
{8}3,,E8/B8/B7,,
{1},,,,E
