&title=Hemisphere
&artist=AR Forest
&first=0.7
&des=えどもーん
&lv_5=14+
&inote_5=(193)
{8}1b,,,7,
,6,,4,
,3,,5,
,1,,2,
{8},,1,,,3,,4,,7,,6,,8,1,2,
{8}C,,,3,
,2,,5,
,6,,3,
,8,,7,
{8},,1,,,2,,3,,5,,7,,1,8,7,
{8}6b/Cf,,2,2,
,6,6,4,
,3,3,4,
,1,,46,
{8},,8,,3,3,,5,,6,6,5,,6,7,8,
{8}C,,5,5,
,2,2,4,
,6,6,4,
,8,,35,
{8},,1,,2,2,,6,6,5,5,4,4,2,1,8,
{4}7b>6[4:6]/2b>2[4:6],,,,,,,,
{8}1/C,,7,7-4[6:1],,5,5-2[6:1],,3,3,,{16}1,2,1,,3h[4:1],,1,8,7,6,
{8}1-6[6:1]/5,,5,5-1[6:1],,2,2-5[6:1],,4,4,,{16}3,5,3,,6h[8:1],,7,8,15,2,
{8}3/4^7[6:1],,1,1^4[6:1],,6,6^1[6:1],,5,5,,{16}7,8,7,,6h[4:1],,8,1,2,3,
{8}8^5[6:1]/4,,3,3^8[6:1],,6,6^3[6:1],,8,8,,{16}8,7,8,,6h[8:1],,5,4,3,2,
{8}7/1-6[6:1],,7,7-4[6:1],,5,5-2[6:1],,6,6,,{16}4,5,4,,6h[4:1],,7,8,1,2,
{8}1-6[6:1]/3,,5,5-1[6:1],,2,2-5[6:1],,6,6,,{16}6,4,6,,3h[8:1],,2,1,84,7,
{8}6/5^2[6:1],,7,7^4[6:1],,1,1^6[6:1],,3,3,,{16}2,1,2,,3h[4:1],,1,8,7,6,
{8}45,3,56,7,34,2,57,8,{16}1,1,1,1,1,1,1,1,
{32}2,3,4,5,6,7,8,1,{16}26,37,48,15,
{16}2b/6b,,,,
{16}35,,2,4,2,,1-5[8:1],,8,,7,,,,6,4,6,,7,,8-4[8:1],,1,,2,,3,,
{16}2,5,3,5,4,5,3,,7,3,6,3,5,3,6,,2,7,B3,7,4,7,B3,,8,2,B7,2,6,2,B7,,
{16}1b,,,,46,,7,5,7,,8-4[8:1],,1,,2,,,,3,5,3,,2,,1-5[8:1],,8,,7,,6,,
{16}7,4,6,4,5,4,6,,2,6,3,6,4,6,3,,7,2,B6,2,5,2,B6,,1,7,B2,7,3,7,B2,,
{16}8b,,,,
{16}21,,3,4,3,,4-8[8:1],,5,,6,,,,7,1,7,,6,,5-1[8:1],,4,,3,,2,,
{16}7,4,6,4,5,4,6,4,7,4,6,4,5,4,6,4,7,3,C,3,5,3,C,3,8,3,C,3,6,3,C,3,
{16}8b,,,,
{16}71,,6,8,6,,5-1[8:1],,4,,3,,,,2,8,2,,3,,4-8[8:1],,5,,6,,7,,
{16}2,5,3,5,4,5,3,5,2,5,3,5,4,5,3,5,2,6,C,6,4,6,C,6,1,6,C,6,3,6,C,6,
{8}1b,,1,,6,5,4,7,,
{16}3,5,4,,3,,2,,5,,6,,4,3,
{16}2,,5,4,6,,5,,7,,3,,4,,6,,
{16},,4,5,6,,3,,7,,{32}3,4,5,4,
{16}3,,6,,2,,4,5,3,,6,,6,,3,,4,,7,,
{16},,6,5,4,,2,,3,,5,,6,,4,5,
{16}3,,7,5,6,,4,,5,,4,,3,,2,,
{16},,7,6,5,,3,,{32}5,6,3,2,6,7,4,3,
{16}8h[128:1],,3,4,5-1[8:7],,7,6,5,,4,,4,,5-1[8:1],,3,,5,,,,
{16}2,3,4,,6,,6,,5,,6,,7,,
{16}4-8[8:7],,2,3,4,,5,,5,,4-8[8:1],,6,,4,,,,
{16}7,6,5,,3,,3,,{32}6,5,4,5,{16}6,,3,,
{16}8p4[8:7],,7,6,5,,1,,1,,8p4[8:1],,2,,8,,,,
{16}1,2,3,,6,,6,,5,,6,,7,,
{16}1q5[8:7],,2,3,4,,8,,8,,1q5[8:1],,7,,1,,,,
{16}8,7,6,,3,,{32}1,5,2,6,3,7,4,8,{16}15,84,37,26,
{1}1b<1[1:4]/5,,,,B6,B5,B4,
{16}8,8,8,8,8,8,8,8,{32}7,6,5,4,3,2,1,8,{16}73,62,51,48,
{16}3b/7b,,,,16,,5,4,5p1[6:1],,6,,7,,8,,,,4q8[6:1],5,4,,3,,2,,1,,7,,62,,
{16}1h[128:1],7,C,6,3h[128:1],5,C,6,
{16}2h[128:1],8,C,7,4h[128:1],6,C,7,
{16}3h[128:1],1,C,8,5h[128:1],7,C,8,
{16}2h[128:1],7,C,6,4h[128:1],5,C,6,
{16}1b,,,,83,,4,5,4q8[6:1],,3,,2,,1,,,,5p1[6:1],4,5,,6,,7,,8,,2,,37,,
{16}8h[128:1],2,C,3,6h[128:1],4,C,3,
{16}7h[128:1],1,C,2,5h[128:1],3,C,2,
{16}6h[128:1],8,C,1,4h[128:1],2,C,1,
{16}7h[128:1],2,C,3,5h[128:1],4,C,3,
{16}8b,,,,16,,5,4,5^3-1[6:1],,6,,7,,8,,,,4^6-8[6:1],5,4,,3,,2,,1,,7,,63,,
3,5,E2,6,4,E8,
3,4,2,6,5,8,
3,5,B2,B6,
1h[128:1],7,C,5,3h[128:1],C,5h[128:1],1,C,7,3h[128:1],C,4h[128:1],6,B3,B7,
{16}1b,,,,{24}8,7,6,5,4,3,{16}2,,1-5[8:1],,28,,1,,,,7,,{24}1,2,3,4,5,6,{16}7,,8-4[8:1],,17,,8,,
{16}3,2,1,8,4,5,6,7,{24}81,2,3,4,5,6,{32}8,1,2,3,4,5,6,7,
{16}2,1,2,1,2,1,2,1,
{32}38,4,5,6,7,8,1,2,38,4w8[8:1],57,6,76,8,15,2,
{32}4b<4^5^6^7^8^1^2^3^4[1:5]/3b,Cf,,,,,,,{1},,
