&title=Prism
&artist=ClariS
&first=0
&des=NovaSoma
&wholebpm=165
&clock_count=4
&lv_5=12+
&inote_5=(165)
{1},
{1},
1-4[4:2],
8-5[4:2],
2^5[4:2],
7p4[4:2],
3^6[4:2],
7p2[4:2],
1V73-5[4:4]/8V26-4[4:4],
{4}
,,27,8h[4:5],
{1}
1>6[4:2],
{2}
Cf,1b,
{4}
1/2-5[8:1],6,7-4[8:1]/8,3,
1/2-5[8:1],6,7-4[8:1]/8,3,
1/2h[4:1],4,7h[4:1]/8,5,
1/3h[4:1],4,6h[4:1]/8,5,
3-8[8:1]/4,5,5/6-1[8:1],4,
3-8[8:1]/4,7,5/6-1[8:1],2,
3^6[4:1],6^1[4:1],1^4[4:1],4^7[4:1],
7^2[4:1],2>2[4:2],Cf,,
{8}
6x,6x,5,7,3,3,4,2,
{4}
8-4[8:1],3,1-5[8:1],6,
3x/4hx[4:1],1,3/4hx[4:1],8,
3/4hx[4:1],7,3/4hx[4:1],7^4[8:1],
1-5[8:1],8-4[8:1],2^5[8:1],7,
2,13,{8}7,7,68,,
{4}
1^4[8:1],1^6[8:2],1^4[8:1],1p6[4:3],1,,,,
{8}
3x,3x,4,2,6,6,5,7,
{4}
1-5[8:1],6,8-4[8:1],3,
5/6-2[8:1],4,5/6-1[8:1],3,
5/6-8[8:1],4,5/6-1[8:1],3,
4-2[8:1],5-7[8:1],4-8[8:1],5-1[8:1],
3,24,{8}6,6,57,,
{2}
1q5[8:1]*>5[8:1],8p4[8:1]*<4[8:1],
{1}
1>8[4:2]*<2[4:2],
{2}
3h[4:4],{32}B6,B5,B4,,,,,,,,,,,,,,
{2}
6h[4:4],{32}B3,B4,B5,,,,,,,,,,,,,,
{2}
2h[4:4],{32}B1,B2,B3,,,,,,,,,,,,,,
{2}
7h[4:4],{32}B8,B7,B6,,,,,,,,,,,,,,
{8}
3x,3x,3x/B6/B7,,4x,4x,4x/B1/B8/E1,,
6x,6x,6x/B3/B2,,5x,5x,5x/B8/B1/E1,,
{4}
2-5[8:1]*-6[8:1],2,7-3[8:1]*-4[8:1],7>5[4:3],Cf,,,,
{4}
2-6[8:1]/7,2/8-4[8:1],1-6[8:1]/8,1/5-8[8:1],
4w8[8:1]/5,4,5w1[8:1],5,
3x-6[8:1]/7x-2[8:1],37,4x-1[8:1]/8x-5[8:1],4q5<4b[4:3],
{1}
B1/B8/Cf,
{8}
1-4[8:1],6,1,6,4x-7[8:1],6,4,6x,
7x-2[8:1],6x,7,6,2x-5[8:1],6,2,6,
{4}
4x>8[4:1],8<4[4:1],4>8[4:1],8<8[4:3],
{1}
Cf,
{4}
7-3[8:1]/2,7/1-5b[8:1],8-3[8:1]/1,8/4-1b[8:1],
5w1[8:1]/4,5,4w8b[8:1],4,
6x-3[8:1]/2x-7[8:1],62,5x-8[8:1]/1x-4[8:1],5p4>5b[4:3],
{1}
B1/B8/Cf,
{8}
8-5[8:1],3,8,3,4-7b[8:1],3,4,3,
8-5[8:1],3,8,3,4-7b[8:1],3,4,3,
{1}
7x^4[4:2]/8x^3[4:2],
1x^6[4:2]/2x^5[4:2],
1V73-5[4:2]/8V26-4[4:2],
{8}
2bx/7bx,2bx/7bx,2hbx[8:4]/7hbx[8:4],,,,,,
E3,E4,E5,,A3,A4,A5,,
{2}
B5/E5,B6/B7/E7,
{16}
,,,,,,3x>6q3[16:30],3x,5hx[8:16],
