&title=さまよう刃
&artist=ZYTOKINE
&first=-2.281
&des=Liver
&lv_5=9+
&inote_1=
&inote_5=(73)
{4}
,,,,3>5[2:3]/2,2,4,4,2,2,4,4,5>7[2:3]/6,6,5,5,4,4,3,3,
1b<6[4:2]/6,6,5,5,1b-5[4:2]/5,5,4,4,1b>4[4:7]b/4,4,5,5,6,6,7,7,,,,,
{8}
6h[4:3]/4,,,7,,8,3,,4h[4:3]/5,,,3,,8,3,,2h[4:3]/7,,,1,,8,3,,8h[4:3]/1,,,6>3[4:1],,6,,,7h[4:3]/8,,,4,,5,2,,1h[4:3]/4,,,8,,5,2,,3h[4:3]/2,,,6,,5,2,,5h[4:3]/6,,,2<5[4:1],,2,,,
{16}
12,,1,,24,,4,,35,,3,3x-1[8:1],,,3,3x-5[8:1],,,3,3x-8[8:1],,,3,3x-6[8:1],,,3,3x,,,,,
46,,6,,57,,5,,35,,3,3x<7[4:1],,,7,7x>3[4:1],,,3,3x<7[4:1],,,7,7x<3[4:1]*>3[4:1],,,,,,,,,
4h[4:3]/8h[4:3],,,,,,,,,,,,,,,,6h[4:5]/2h[4:4],,,,,,,,,,,,,,,,,1h[16:7],,,,5h[16:7],,,,8h[16:7],,,,4h[16:15],,,,7>7[16:7],,,,,,,,,,,,,,,
{8}
5h[4:3]/6<3[4:2],,,,,,,,7h[8:3]/2-6[8:1],,,,2h[8:3]/7-3[8:1],,,,1h[4:3]/2>7[4:2],,,,,,,,5h[8:3]/4-8[8:1],,,,4h[8:3]/5<1[8:1],,,,
{16}
3/6x-8[8:1],3,3,3,3/6x,3,3,3,3/6x-1[8:1],3,3/6x,3,3/6x,,,,3/5x-7[8:1],3,3,3,3/5x,3,3,3,3/5x-8[8:1],3,3/5x,3,3/5x,,,,
6/1x-3[8:1],6,6,6,6/1x,6,6,6,6/1x>4[8:1],6,6/1x,6,6/1x,,,,6/2x-4[8:1],6,6,6,6/2x,6,6,6,6xv1[8:1]<5[1:1]/2xv5[8:1]>1[1:1],,6x/2x,,6x/2x,,,,,,,,,,,,,,,,,,,,
7h[8:3]/5h[8:3],,,,,,,,2h[8:4]/4h[8:6],,,,,,,,,3h[16:7],,,,5h[16:7],,,,4h[16:6],,,,6h[16:2],,,7b>2[4:2]>4[4:1]/1bs5[4:3],,,,,,,,,,,,,,,,
{8}
,,56,,5-3[8:1]/6-8[8:1],56,56,,46,,46,,4>1[8:1]/6<1[8:1],46,46,,25,,25,,2-7[8:1]/5-8[8:1],25,25,,48,,48,,4>8[8:1]/8<4[8:1],48,48,,78
,,78,,7<5[8:1]/8>2[8:1],78,78,,71,,71,,7-4[8:1]/1-4[8:1],71,71,,38,,38,,3v6[8:1]/8v5[8:1],38,38,,15,,15,,1>5[4:17]b/5<1[4:17]b,15,1b/5b,,,,E
