&title=シンフォニック・ラブ
&artist=橋本みゆき
&first=0.505
&des=乾紗凪
&lv_5=13+
&inote_5=(144)
{8}2,2h[4:1],,4,,42,,,6,6h[4:1],,5,,56,,,
{8}7,7h[4:1],,5<8[4:1]*>2[4:1],,,,,3,3h[4:1],,4>1[4:1]*<7[4:1],,,,,
{8}
8b,,64,7-5[8:1],,2,2-6[8:1],,
8,8,17,2-4[8:1],,5,5-7[8:1],,
1,,35,2-4[8:1],,7,7-3[8:1],,
{1}1b>8[4:2],
{8}
5-7[8:1],5,3>1[8:1],3,6-4[8:1],6,3>1[8:1],3,
5-8[8:1],5,3>6[4:1],3,7,,5,5,
{8}2h[8:1],4,53,{16}6,5,{8}6h[8:1],8,71,{16}8,2,
{4}8V64[4:1],4pp5[4:1],{8}2,1b,1b,,
{8}
4-2[8:1],4,6<8[8:1],6,3-5[8:1],3,6<8[8:1],6,
4-1[8:1],4,6<3[4:1],6,2,,4,4,
{8}75,7,73,7,{16}8,1,8,1,{24}7,6,5,1,2,3,
{8}4b/8b,5b/7b,4b/8b,3b/7b,4b/8b,1b/7b-3[8:1],,,
{8}
1h[4:1],,3,2>5[8:1],,1,1,,
4-1[8:1],5,4,5-8[8:1],,3,3,,
7h[4:1],,5,6>3[8:1],,7,7,,
{16}6,5,6,,{8}3,5h[4:1],,1b,3b/7b,,
{16}2h[8:1],,4,3,6h[8:1],,5,7,{8}4,1,28,,
{16}7h[8:1],,5,6,3h[8:1],,4,2,{8}5,8,1p4[8:1]/7<4[8:1],,
{8},,8q5[8:1]/2>5[8:1],,,,36,{16}4,5,
{16}3,4,{8}2-6[8:1],6,8h[4:1],,4b,2b/6b,,
{8}
1-5[8:1],7,5-1[8:1],,1-5[8:1],7,5-1[8:1],,
1-5[8:1],7,5<4[8:3],,1,,5,,
{8}7h[8:1],5,46,{16}3,4,{8}3h[8:1],1,28,{16}1,7,
{4}1V35[4:1],5p4[4:1],{8}7,8b,8b,,
{8}
8-4[8:1],2,4-8[8:1],,8-4[8:1],2,4-8[8:1],,
8-4[8:1],2,4>5[8:3],,8,,4,,
{8}24,2,26,2,{16}1,8,1,8,{24}2,3,4,8,7,6,
{8}1-4[8:1],5-8[8:1],1-6[8:1],5-2[8:1],,,,,
{8}1h[8:3]/2b,3,4,5-1[8:1],,8,8p2[4:1],,
{4}2q8[4:1],1,{8}2,1,28,,
{8}8h[8:3]/7,6,5,4-8[8:1],,1,1q7[4:1],,
{4}7q5[4:1],8,{8}7,3,26,,
{8}4h[8:3]/3b,2,1,8-4[8:1],,5,5q3[4:1],,
{4}3p5[4:1],4,{8}3,4,35,26,
{8}8b,8,18,{16}2,2,8,8,2,2,6,6,4,4>5[16:9],
{1}5bpp4[4:2],
{8}3b/7b,1-5[8:1],5,8>3[8:1],7,6>3[8:1],7,8-3[8:1]*-5[8:1],
{8}7,8<1[8:3],,4-8[8:1],4,,,{16}7,5,
{8}6,2/1h[8:1],3,{16}7,5,{8}6,2/1h[8:1],3,{16}7,7,
{8}1-4[16:1],5,7-3[16:1],3,2h[8:1],1b,3b/7b,,
{8}62,8-4[8:1],4,1<6[8:1],2,3<6[8:1],2,1-6[8:1]*-4[8:1],
{8}2,1>8[8:3],,5-1[8:1],5,,,{16}2,4,
{8}3,7/8h[8:1],6,{16}2,4,{8}3,7/8h[8:1],6,{16}2,,
{8}3b/7b,4b/6b,8b<5[8:1]/2b>5[8:1],5bpp5[4:1]*qq5[4:1],{4}8b/2b,,
{8}3-7[8:1]/6,,7,4>1[8:1],6,8-4[8:1],6,4-1[8:1]*-7[8:1],
{8}6,4>5[8:3],,8-4[8:1],8,,,{16}2,6,
{8}4,1h[8:1]/7,5,{16}2,6,{8}4,1h[8:1]/7,5,{16}2,2,
{8}8-5[16:1],4,2-6[16:1],6,7h[8:1],8b,2b/6b,,
{8}48,6-2[8:1],2,5<8[8:1],3,1-5[8:1],3,5-8[8:1]*-2[8:1],
{8}3,5<4[8:3],,1-5[8:1],1,,,{16}7,3,
{8}5b,18,37,{16}2,6,4b,5,3,5,4,5,1,5,
{8}2-6[8:1],8-4[8:1],1-5[8:1],,,,,,
