&title=Lockdown (Tatsunoshin VIP)
&artist=PIKASONIC & Tatsunoshin
&first=0.05
&lv_5=14+
&des_5=Ideglami
&inote_5=
(170){4},,,,{8}3,
4,5,6,B3,B4,B5,B6,
3,4,5,6,B3,B4,B5,B6,
3,4,5,6,B3,B4,B5,B6,
{1}3<2[4:3],
{8}6,5,4,3,B6,B5,B4,B3,
6,5,4,3,B6,B5,B4,B3,
6,5,4,3,B6,B5,B4,B3,
{4}6>7[4:3],{2},{4}4,
{2}4-1[4:1],{4}7p4[4:3],{8}7,8h[8:5],
{4},,,2>5[4:1],
{2}2/1h[2:1],{4}6pp1[4:3],{8}6,5,
,4,,3qq8[4:3],,3,{4}4<7[8:3],
{2},{4}2>4[4:1],{8}2,5pp4[8:5],
,5,{4},3qq4[8:5],{8}3,6-4[4:1],
,,,,,7,6/5,4,
{4}3/2h[4:1],{8}1,3/8h[4:1],,1,{4}2/7<2[2:1],
{2}C,{4}7qq4[4:3],{8}7,3>1[4:1],
,3,{4},8pp3[4:3],{8}8,7<4[8:3],
{4},,,{8}2/1,8,
{4}7/6h[4:1],{8}5,7/4h[4:1],,3,{4}2/5<2[2:1],
{2}C,{4}4p1[2:1],4/5h[2:1],
{2},{4}6pp5[8:5]/4qq5[8:5],4/6,
{8},,,,,6,7/8,1,
{4}2/3h[4:1],{8}4,2/5-8[8:1],,5/4h[8:3],{4},{2}6>1[2:1],
1<4[2:1],
{4}2pp5[8:7],{8}2,1,,8<6[4:1],,8,
{4},,,{8}1/2,8,
{4}7/6h[4:1],{8}5,7/4-1[8:1],,4/5h[8:3],{4},{2}3>6[2:1],
6>1[2:1],
{4}7qq4[8:7],{8}7,8,,1>3[4:1],,1,
,,,,,6,7/8,1,
{4}2/3h[4:1],{8}4,2/5-8[8:1],,5/4h[4:1],{4},{8}1/2,
{16}3,3,{8}4,2/5,{16}6,4,6,4,{8}5<7[8:1],3/4,
1/5,{16}2,2,{8}1,3/8,{16}2,4,2,4,{8}3-5[8:1],2/1,
3/7,{16}6,6,{8}5,4/7,{16}3,5,3,5,{8}4>2[8:1],5/6,
4/8,{16}7,7,{8}8,1/6,{16}3,4,2,5,1,6,8,7,
{8}1,1,8/2,8/2,3/7,3/7,6/4,6/4,
3/5,3/5,4/2,4/2,3/1,3/1,8/4,8/4,
{16}5,6,4,7,3,8,2,1,{32}2,3,4,5,6,7,8,1,2,3,4,5,6,7,8-4[1.1471##0.1765],1pp3[1.1029##0.1765],
{4}2h[8:5]/6h[8:5],{2},{4}1/8,
{32}8x<8[4:1],7<8[32:7],6>8[16:3],5>8[32:5],{8}4h[8:3],{4}8xp5[8:3],{2},{32}1x>1[4:1],
2>1[32:7],3<1[16:3],4<1[32:5],{8}5h[8:1],{4}1x,3xh[4:1],{32}2x<2[4:1],1<2[32:7],8<2[16:3],7<2[32:5],{8}6>2[8:1],
{4}2x,7xh[4:1],{32}8x>8[4:1],1>8[32:7],2>8[16:3],3<8[32:5],{8}4<8[8:1],{4}8x,
3xh[4:1],{8}4,2/5,{16}3,4,2,7,5,6,1,8,
{32}1x>1[4:1],2>1[32:7],3<1[16:3],4<1[32:5],{8}5h[8:3],{4}1q4[8:3],{2},{32}8x<8[4:1],
7<8[32:7],6>8[16:3],5>8[32:5],{8}4xh[4:1],{4}8x,5xw1[8:1],{64}B5,B4,B6,B3,C,B7,B2,B8,{8}B1,
3/7,3/7,4/6,4/6,3/5,3/5,2/4,2/4,
{16}8,7,1,6,2,5,3,4,2,1,3,8,4,7,5,6,
{2}2h[2:1],{4}1-5[8:1],1/8h[4:1],
{32}4x>4[4:1],7/3>4[32:7],6/2<4[16:3],5/1<4[32:5],{8},{4}4x/Cfh[8:1],2xh[4:1],{32}3x<3[4:1],4<3[32:7],5<3[16:3],6<3[32:5],{8},{4}3x/C,
8xh[4:1],{32}4x>4[4:1],7/3>4[32:7],6/2<4[16:3],5/1<4[32:5],{8},{4}4x/C,
3xh[4:1],{8}4,2/5,{16}6,5,7,2,4,3,8,1,
{32}8x<8[4:1],7<8[32:7],6>8[16:3],5>8[32:5],{8}4xh[4:1],{4}8xp5[8:3]*q3[8:3],{2},{32}1x>1[4:1],
2>1[32:7],3<1[16:3],4<1[32:5],{8}5xh[4:1],{4}1x,4xw8[8:1],{64}B4,B5,B3,B6,C,B2,B7,B1,{8}B8,
2/6,2/6,3/5,3/5,4/6,4/6,5/7,5/7,
{16}2,1,3,8,4q7[2:1],7,5,6,{2},{1}1h[1:1],
7h[1:1],
5h[1:1],
3>4[4:3],
{8}8bh,1h,2h,3h,B8,B1,B2,B3,
8h,1h,2h,3h,B8,B1,B2,B3,
8h,1h,2h,3h,B8,B1,B2,B3,
{4}8>7[4:3],{2},{4}1,
{2}1-4[4:1],{4}5q8[4:3],{8}5,4h[8:5],
{4},,,3>8[4:1],
{2}3/4h[2:1],{4}7qq4[4:3],{8}7,8,
,1,,2pp5[4:3],,2,{4}1<6[8:3],
{2},{4}3<5[4:1],{8}3,6pp5[8:5],
,6,{4},4qq5[8:5],{8}4,7-5[4:1],
,,,,,8,2/1,3,
{4}4/5h[4:1],{8}6,4/7h[4:1],,8,{4}1/6>1[2:1],
{1}6/7h[2:1],
6h[2:1]/C,
5h[2:1]/C,
4h[2:1]/C,
3h[2:1]/Ch[1:3],
2h[2:1],
1h[2:1],
8bh,
{8}B6h[4:3],B5h[4:3],B4h[4:3],B3h[4:3],,Ch[2:1],,,,,,2,
3,4,5,6,
B3h[4:3],B4h[4:3],B5h[4:3],B6h[4:3],,Ch[2:1],,,,,,7,
6,5,4,3,
B6h[4:3],B5h[4:3],B4h[4:3],B3h[4:3],,Ch[2:1],,,,,,2,
3,4,5,6,
B3h[4:3],B4h[4:3],B5h[4:3],B6h[4:3],,Ch[2:1],,,,,,7,
6,5,4p1<1[4:7],3,
{1},,{8}8h[4:1]/7h[4:1],
{4},{8}4h[4:1]/3h[4:1],{4},1h[4:1]/2h[4:1],
{8},5/6h[4:1],,7,{4}5-2[8:1]/8-3[8:1],5/8,
1>4[8:1]/4<7[8:1],1/4,{8},5/8h[4:1],,1h[4:1],
,3h[4:1],,2,{4}1-6[8:1]/4-7[8:1],1/4,
8<5[8:1]/5>2[8:1],5/8,{8},1/4h[4:1],,5h[4:1],
,7h[4:1],,6,{4}8-3[8:1]/5-2[8:1],8/5,
1>4[8:1]/4<7[8:1],1/4,{8},5/8h[4:1],,1h[4:1],
,3h[4:1],,2,{4}1-6[8:1]/4-7[8:1],1/4,
8/5h[4:1],{8}6,4/7h[4:1],C,8,{4}6/1h[4:1],
{8}2,8/3h[4:1],C,2,{4}1-6[8:1]/4-7[8:1],1/4,
8<5[8:1]/5>2[8:1],8/5,{8}C,4/1h[4:1],,8h[4:1],
,6h[4:1],C,7,{4}8-3[8:1]/5-2[8:1],8/5,
1>4[8:1]/4<7[8:1],1/4,{8}C,8/5h[4:1],,4h[4:1],
,2h[4:1],C,3,{4}1-6[8:1]/4-7[8:1],1/4,
8<5[8:1]/5>2[8:1],5/8,{8}C,4/1h[4:1],,8h[4:1],
,6<3[8:3],{4},,,{16}3h[16:3],
{8},{16}4,{8}2,1/5,{16}6h[16:3],{8},{16}5,{8}7,4/8,
{16}3h[16:3],{8},{16}4,{8}2,1/6,{16}7h[16:3],{8},{16}8,{8}6,1/5,
{16}2h[16:3],{8},{16}1,{8}3,4/8,{16}7h[16:3],{8},{16}8,{8}6,1/5,
{16}3h[16:3],{8},{16}4,{8}2,1/5,{16}6/4h[16:3],{8},{16}7,3,6,4,5,
2,4,3,6,4,5,2,4,3,6,4,5,1,6,8,7,
4,5,3,6,5,7,4,5,3,6,5,7,3,8,2,1,
{32}3,4,5,6,7,8,1,2,3,4,5,6,7,8,1,2,3/7,6,5,4,3,2,1,8,7,6,5,4,3,2,1-5[1.1471##0.1765],8q5[1.1029##0.1765],
{4}7h[8:5]/3h[8:5],{2},{4}1/8<6[8:1],
{24}8/4x,3,2,1q5[8:1],{12},{8}5,{24}5x/1,6,7,{8}8p4[8:1],3/7,{24}8/4x,3,2,1,{12},{8}5/2-6[8:1],
1xh,2/7,8xh,{24}5/7x,8,1,2,3,4,5/7x,8,1,2,3,4,
{4}5/7x-4[8:1],{24}4x/7,3,2,1q5[8:1],{12},{8}5,{24}1/5x,6,7,{8}8-4[8:1],6/2xh,
8/7-3[8:1],6xh,1/7,2xh,{24}1x/4x,2/5,3/6,4/7h[4:1],{12},{24}6x-1[8:1],5,4,3,2,1,
{4}6x/8xh[4:1],{32}1x-5[8:1],7/2,3/6,5/4,{8},1/7<4[8:1],8xh,7/3-8[8:1],2xh,
3/6-2[8:1],5xh,6/3,4xh,{24}5/7x,8,1,2,3,4,5/7x,8,1,2,3,4,
{4}5/7x-4[8:1],{24}7x/4x-8[8:1],3,2,1,{12},{8}6<1[8:1],5xh,6/2-5[8:1],3xh,
2/7<4[8:1],8xh,7/1-6[8:1],2xh,{4}1xp4[8:1]/8-4[8:1],8/1x>3[8:1],
{24}5x/1,6,7,8p4[8:1],{12},{8}4,{24}4x/8,3,2,{8}1q5[8:1],6/2,{24}1/5x,6,7,8,{12},{8}4/7-3[8:1],
8xh,7/2,1xh,{24}4/2x,1,8,7,6,5,4/2x,1,8,7,6,5,
{4}4/2x-5[8:1],{24}5x/2,6,7,8p4[8:1],{12},{8}4,{24}8/4x,3,2,{8}1q5[8:1],2/6xh,
1/7-3[8:1],6xh,7/1,2xh,{24}1x/4x,2/5,3/6,4/7h[4:1],{12},{24}6x-1[8:1],5,4,3,2,1,
{4}6x/8xh[4:1],{32}1x-5[8:1],7/2,3/6,5/4,{8},1/7<4[8:1],8xh,7/2-6[8:1],1xh,
2/8-4[8:1],7xh,8/3,2xh,{24}3x/5,2,1,8,7,6,5/3x,2,1,8,7,6,
{4}3xqq4[8:3]/5xpp4[8:3],5x/3x,,Cf,
{8}8/7,{16}6,6,{8}5,4/7,{16}2,1,3,8,4,7,5,6,
2x,4,3,4,{8}B2h[8:1]/A2h[8:1],{16}7x,5,6,5,{8}B7h[8:1]/A7h[8:1],{16}3x,5,4,5,
{8}B3h[8:1]/A3h[8:1],{16}7x,5,6,5,{8}B7h[8:1]/A7h[8:1],{48}A2,D3,A3,D4,A4,D5,A5,D6,A6,D7,A7,D8,{32}B3,B4,B5,B6,{8}B7,
{16}3x,4,2,4,{8}B3h[8:1]/A3h[8:1],{16}6x,5,7,5,{8}B6h[8:1]/A6h[8:1],{16}2x,1,3,1,
{8}B2h[8:1]/A2h[8:1],{16}7x,8,6,8,{8}B7h[8:1]/A7h[8:1],{48}A4,D4,A3,D3,A2,D2,A1,D1,A8,D8,A7,D7,{32}B3,B2,B1,B8,{8}B7,
{16}2x,4,3,4,{8}B2h[8:1]/A2h[8:1],{16}6x,4,5,4,{8}B6h[8:1]/A6h[8:1],{16}3x,5,4,5,
{8}B3h[8:1]/A3h[8:1],{16}7x,5,6,5,{8}B7h[8:1]/A7h[8:1],{48}A2,D3,A3,D4,A4,D5,A5,D6,A6,D7,A7,D8,{32}B3,B4,B5,B6,{8}B7,
{16}2x,1,3,1,{8}B2h[8:1]/A2h[8:1],{16}6x,5,7,5,{8}B6h[8:1]/A6h[8:1],{16}3x,4,2,4,
{8}B3h[8:1]/A3h[8:1],{16}7x,8,6,8,{8}B7h[8:1]/A7h[8:1],{48}A4,D4,A3,D3,A2,D2,A1,D1,A8,D8,A7,D7,{32}B3,B2,B1,B8,{8}B7,
B5h[8:7],B4h[32:23],B3h[16:9],B2h[32:13],2x>6[8:1],C,{32}A2/D3,A3/D4,A4/D5,A5/D6,{8},{48}A7,
D7,A6,D6,A5,D5,A4,D4,A3,D3,A2,D2,{32}B6,B5,B4,B3,{8}B2,{4}Cfh[4:1]/8xw4[8:1],{64}B8,B1,B7,B2,B6,B3,B5,B4,{8},{16}2x,
1,3,1,{8}B2h[8:1]/A2h[8:1],{16}6x,5,7,5,{8}B6h[8:1]/A6h[8:1],{16}3x,4,2,4,
{8}B3h[8:1]/A3h[8:1],{16}7x,8,6,8,{8}B7h[8:1]/A7h[8:1],{48}A2,D3,A3,D4,A4,D5,A5,D6,A6,D7,A7,D8,{32}B3,B4,B5,B6,{8}B7,
1h[16:1],1h[16:1],2h[16:1]/8h[16:1],2h[16:1]/8h[16:1],3h[16:1]/7h[16:1],3h[16:1]/7h[16:1],4h[16:1]/6h[16:1],4h[16:1]/6h[16:1],
3h[16:1]/5h[16:1],3h[16:1]/5h[16:1],2h[16:1]/4h[16:1],2h[16:1]/4h[16:1],3h[16:1]/1h[16:1],3h[16:1]/1h[16:1],4h[16:1]/8h[16:1],4h[16:1]/8h[16:1],
{24}2x,6x,2x,6x,2x,6x,2x>6[8:1],6x,2x,6x<2[8:1],2x,6x,{64}A2,D3,A3,D4,A4,D5,A5,D6,A6,D7,A7,D8,A8,D1,A1,D2,{32}3x,4x-8[1.7206##0.1765],5x,6x,7x,8x,1x,2x-5[1.4559##0.1765],
{1}3xh[8:7]/A7h[8:7]/B7h[8:7],
2/4,
E
