&title=ナナヒツジ
&artist=シナリオアート
&first=0
&des=ナナヒツジ
&lv_6=14+
&inote_6=(190)
{1},
{16}4,35,2h[2:3]/6h[2:3],,{8},,,,,,,,,,,,,
{6}1,34,65,1,43,76,1,34,{24},
{16}8,7,{8}2h[8:3]/6,,3,1-7[8:1],,15,,3>7[4:1],,6,,4h[4:1],,
{16}8,1,{8}2h[8:3]/6,,3,1-7[8:1],,15,,3>7[4:1],,6,,4h[4:1],,
{16}8,1,{8}2>1[8:3]/6,,4,,,3-6[16:3],,1,,7-2[16:3],,5,,
{16}8,7,{8}2>1[8:3]/6,,4,,,3-6[16:3],,1,,7-2[16:3],,5,,
{16}8,7,{8}2pp1[2:1]/6pp5[16:17],,2b,,,,,,,,,,1w5[8:1],,1b,,
37,,65,7,,54,3,7-3[8:1]*-1[8:1],,7,,5h[8:5]/4,,6,6-1[8:1],,
6,4-7[8:1],,14,2h[4:1],8h[8:1],,1h[8:1]/7h[8:1],,26,26,,
34,,65,7,,54,3,7-1[8:1]*-3[8:1],,7,,6h[8:5]/2,,8,8-3[8:1],,
8,5-8[8:1],,25,3h[8:3],7h[458062:114514],,{16}6,5,{8}2b<7[32:5]*v4[32:5],,,,
6,5,73,,3,4,26,7-3[8:1]*-1[8:1],,7,,8h[8:5]/2,,6,6-3[8:1],,
6,1-6[8:1],,41,3h[4:1],7h[8:1],,6h[8:1]/2h[8:1],,51,5/1>1[4:3],,,,,,
1>1[32:24]*>2[32:3]*>3[32:6]*>4[32:9]*>5[32:12]*>6[32:15]*>7[32:18]*>8[32:21],,
,,,,,,,,1b,,34,,56,7,8,1-7[8:1]*v4[8:1],,,,6pp5[8:9]/2,{4}6/2pp1[8:8],,,,,,,,
54,3-5[16:3],4,6h[4:1],7h[4:1],8h[4:1],1p4[16:5],
5p8[16:5],,1>4[4:1],4<7[4:1],7,1,2pp4[16:5]/8,
4,6pp8[16:5],8,2h[4:1],1h[4:1],8h[4:1],7,
65,23,7/8>3[8:1],5<8[8:1]/8,2>5[8:1]/5,1h[4:1]/2,{8}8,2b/7b,,,
{32}1b/8b,27,36,45,{8},2/7-3[8:1],,
3-7[8:1],4,5-1[8:1]*-2[8:1],,5,,3-7[8:1],,7-3[8:1],8,1-5[8:1]*-6[8:1],,
1,,34,2-8[8:1],,2/4-6[8:1],,4/7-3[8:1]*-2[8:1],,7,,
5,4,7h[4:1],{16}6,5,4,3,
{8}2>5[8:1]/8,,52,7,1-5[8:1],3,7-3[8:1],,4,2,8w4[8:1],6,8,,1,82,
7<4[8:1]/3,,4,2,8-4[8:1],6,2-6[8:1],,5,7,1w5[8:1],3,1,,7-4[8:1]/3-8[8:1],,
{8}3b/7b,,2-6[8:1],,
6-2[8:1],5,4-8[8:1]*-7[8:1],,4,,6-2[8:1],,2-6[8:1],1,8-4[8:1]*-3[8:1],,
8,,65,7-1[8:1],,7/5-3[8:1],,5/2-6[8:1]*-7[8:1],,2,,
4,5,2h[4:1],{16}3,4,5,6,
{8}7<4[8:1]/1,,47,2,8-4[8:1],6,2-6[8:1],,5,7,1w5[8:1],3,1,,
7/3-7[8:1],,4<3[16:5],,1,1h[4:1],,5,7-2[8:1]/3-6[8:1],,73,,1-7[8:1]*v4[8:1]/5,,,,
{4},{1}8b,,,,,,,
{4}5<2[8:8]/4h[2:1],,,4q5[1:1],4,,,5<2[8:8],,4,4q5[1:1],4,,,5<2[8:8],,4,4q5[1:1],4,,,
5,6,7,8z4[16:8],1,,,
45,3-6[4:1],1,3-6[4:1],6-3[4:1],8,7pp2[8:5],5,6,7pp2[8:5],4,5,6p3[16:9],,
2,8-5[4:1],6,8-5[4:1],5-8[4:1],2,4pp1[16:9]*pp8[16:9],,,,2-6[8:1],
6-2[8:1],8-3[8:1]*-5[8:1],8,{16}71,,26,,3,5,4,6,8,,17,,6,4,5,3,1,,82,,
1,1,1,1,1w5[8:1],,,,{4}1b,,1h[4:1],,1h[4:1],,1h[4:1],,
{16}18,,3,4,2,,6,5,7h[8:1],,8h[8:1],,1h[8:1],,2h[8:1],,
6,,75,,3,,2/4z8[16:3]*z8[16:3],,,,{8},,,
{8}7b/1b-6[8:1],,1>4[8:1],4-8[8:1],1,5,7-5[8:1],,
7-3[8:1],3>8[8:1],7,4,6>3[8:1],,7,8,
1<6[8:1],,1-5[8:1],5>2[8:1],1,8,7,6,
{16}1,2,3,4,8,1,2,3,{24}7,8,1,2,3,4-8[8:1],5,6,7,8,1,2,
{8}3b,,2-6[8:1],,6-2[8:1],5,4-7[8:1]*-8[8:1],,
4-1[8:1]*-2[8:1],,4-7[8:1],,7-4[8:1],8,1-6[8:1]*-5[8:1],,
1,,34,6-8[8:1]/2,,6/4-2[8:1],,4/1-5[8:1]*-6[8:1],,1,,47,63,2h[4:1]/5,{16}4,5,6,7,
{8}1/8-3[8:1],,8<5[8:1],5-1[8:1],8,4,2-4[8:1],,
2-6[8:1],6<1[8:1],2,5,3-8[8:1],,6-1[8:1]/3,,
5>6[16:5],,8,8h[4:1],,4,26,,8-4[8:1]/4-8[8:1],,8V25[4:1]*V63[4:1]/4,,,,,,
7b<4[8:1]/1b,{16},8,{8}7,1,8-4[8:1]/2,
{16},1,8,,2,,1<6[8:1]/3,,,2,1,,3,,45,,6,,45,3,2,1,
{8}8-4[8:1]/7,{16},6,{8}8,7,1>4[8:1]/8,{16},7,{8}1,8,2-6[8:1]/1,{16},8,2,,1,,
84,7,6,5,3,2,1,8,{8}7/6<5[16:5],,1b,,8,17,28,
1/3-6[8:1],,7-2[8:1]/3,,73,{16}3,4,5,6,7,8,1,2,73,,
6-2[8:1],5,,3,6,,4,,1,,76,,3-7[8:1],4,,6,3,,5,,8,,2b/3b,,,5b/6b,,,8b/1b,,
27,,3-7[8:1],4,2,,2,,1-5[8:1],8,2,,2,,3-7[8:1],4,2,,2,,1,8,1,8,2,4,3,5,4,6,5,7,
3b,,8-4[8:1],1,7,,7,,6-2[8:1],5,7,,7,,8-4[8:1],1,7,,7,,6,5,6,5,
7,4,6,3,5,2,4,1,7b,,2-5[8:1],1,3,,5,,7-3[8:1],8,6,,3,,2,8,1h[8:1],,
7h[8:1],,5h[8:1],,3,,35,24,13,28,7-3[8:1]/1,86,75,,6b,,1-4[8:1]*-6[8:1],2,8,,1,,,,
3qq8[16:6]/7qq4[16:6],,73,,,,,,,,,,,,15,26,{24}37,84,15,
{8}2b-7[8:1]/6b,,25,3-6[8:1],,38,2-7[8:1],,25,3-6[8:1],,38,1h[4:1],,5,48,37,26,
1,34,76,2h[8:3]/1,{24}3b,4b,5b,6b,7b,8b,1b-7[380#16:5]*v4[380#16:5],
