&title=Kakera
&artist=CLTH
&first=-0.14
&des=GLover
&lv_5=13+
&lv_6=14
&inote_1=(167)
{16}4w8[8:1],,,,4,,,,1,3,2,,8,6,7,,1,3,2,4,3,5,4,6,
&inote_5=(167)
{24},,,,,,,,,,,,,,,,,,,,,,,,4qq8[4:2],,,,,,,,,,,,,,,,,,,,,,,,5pp1[4:2],,,,,,,,,,,,,,,,,,,,,,,,4qq1[4:2]/5pp8[4:2],,,,,,,,,,,,,,,,,,,,,,,,
{16}1-6-2-5[8:3],,,7x,,,8x,,8xbh[8:2],,,,,,,,1/8,,,,1,2,3,4,8,,,,8,7,6,5,1,6h[16:1],,2,7h[16:1],,3>8[8:1],8<5[8:1],3,,,,,,,,1/6,,,,7,6,5,4,1,,,,2,3,4,5,8,4h[16:1],,7,3h[16:1],,6<5[4:1],2,6,,,,,,,,2,6,2,6,3,7,3,7,4,3,2,1,5,6,7,8,4,8,4,8,3,7,3,7,2,6,1,5,8,4,1,5,
{24}A2,A3,A4,A5,A6,A7,A8,A1,A2,A3,A4,,E6/7,,,,E4/2,,,,Ch[12:8],,,,,,,,,,,,,,,,,,,,,,,,,,,,
{16}4h[8:3],,5h[8:2],,,,,,,,3h[8:1],,7h[8:1],,1h[8:3],,8h[4:3],,,,,,,,B7/B8,,,,B3/B4,,,,5h[8:3],,4h[8:2],,,,,,,,6h[8:1],,2h[8:1],,8h[8:3],,1h[4:1],,,,,,,,1s5[8:1]/8z4[8:1],,,,,,,,
{16},,3h[4:1],,6,,7,,8h[4:1],,1,,2,,3>4[8:5],,B7,,,E1,,,B2,,,,,,,,,,,,7h[4:1],,4,,3,,2h[4:1],,1,,8,,7,,6/5,,1,,3/4,,8,,3-8[12:1]/7-4[12:1],,,,,,,,2-5[8:1],1,2,1,2,,,,7-4[8:1],8,7,8,7,,,,
{12}1,1,5,2,2,6,3-7[12:1],,,7,,,
{16}6<1[8:1],,5,,4,,3,,2>5[8:1],,1,,8,,7,,6p4[4:1],,,3,,,2,,1-5[8:1],,,,,,,,7h[4:1],,B7/B6,,,,,,2h[4:1],,B2/B3,,,,,,2/4,,3,,5/7,,6,,4/5v8[8:1],,,4,,,,,7h[8:1],,1,,1/7,,,,2h[8:1],,8,,2/8,,,,1/2,,4,,7/8,,5,,1v4[8:1]/8,,,8,,,,,
{8}3-7-1-5[8:7],,,,,,,,5-7-3-1[8:7],,,,,,,,1-6-4-8[8:6],,,,,,,,1>2-6[4:2]*<8-4[4:2],,,,,,,,
{16}7,5h[16:1],,6,4h[16:1],,5-7-1<5[4:1],,,,4,,3,,2,,2,4h[16:1],,3,5h[16:1],,4-2-8>4[4:1],,,,5,,6,,7,,8,5,7,4,6,3,5,2,1x-6<4[8:3],,6x,,1x,,5xh[8:3],,,,,,,,,,B3/B6/B4/B5,,,,B2/B7/B1/B8,,,,
{16}1b-6[12:1]/8b,,,2,1,,3,,4/5-2[12:1],,,6,5,,7,,1/8-4[12:1],,,1,8,,2,,3bv8[12:1]/5bv8[12:1],,,,3/5,,,,1/7-4[12:1],,,8,7,,1,,2-5[12:1]/8,,,1,2,,8,,8<4[4:1],,,,4>8[4:1],,,,8<4[4:1],,,,4,,,,2-5[12:1],,2,,2/6-1[12:1],,6,,6/3-8[12:1],,3,,3/7,,,,1-5[12:1],8,2,,1,,8<1[8:7],,B4,,,B3,,,B2,,8,,,7,,,6,,6h[4:2],,,,,,,,1,2,3,4,8,7,6,5,2,4h[16:1],,3,5h[16:1],,4,,
7bv4[12:1],,,8,7,,1,,2v5[12:1],,,1,2,,8,,7v2[12:1],,,5,7,,4,,1b-6[12:1]/4b-1[12:1],,,,1/4,,,,8v3[12:1],,,7,8,,6,,5v8[12:1],,,4,5,,3,,2-6[12:1],,,,2-8[12:1]/7-4[12:1],,,,2-5-3[8:1],,,,2,,,,
{16}6,5,7,,3,4,2,,1h[8:1]/8,,,3,1,,1x/8x,,2,4,3,,7,5,6,,1/8h[8:1],,,6,8,,1x/8x,,
1,2,3,4,8,7,6,5,
{32}1x,2,3,4,5,6,7,8,1,2,3,4,5,6,7,8,1xbs5[8:4]*s5[8:4]/Cf,,,,,,,,,,,,,,,,,,,,,,,,,,,,,,,,
{16}
1/8,,,,8,7,6,5,1,,,,1,2,3,4,8,3h[16:1],,7,2h[16:1],,6<1[8:1],1>4[8:1],6,,,,,,,,
3/8,,,,2,3,4,5,8,,,,7,6,5,4,1,5h[16:1],,2,6h[16:1],,3>4[4:1],7,3,,,,,,,,
7h[4:1],,,,8,1,2,3,4h[4:1],,,,5,6,7,8,1h[4:1],,,,5,4,3,2,1v6[12:1]/5v2[12:1],,,,1/5,,,,3h[4:1],,,,4,5,6,7,8h[4:1],,,,1,2,3,4,5x/7x,,,2x/4x,,,1x-7-4[4:1]/8x-2-5[4:1],,1x/8x,,,,,,,,
{16},,3h[8:1],,5h[8:1],,1h[8:4],,B1,,,B4,,,B7,,,,6h[8:1],,4h[8:1],,8h[4:2],,B8,,,B5,,,B2,,,,1/2h[4:1],,3,,4,,5/6h[4:1],,7,,8,,1,,2/C,,,6/C,,,4/8,,7/C,,,3/C,,,1/5,,
2,4,2,4,1,8,1,8,1,2,3,4,8,7,6,5,1,6,1,6,2,7,2,7,3x-8[12:1],3x,,8x,3x,,7x,,
{24}8x,1,2,3,4,8x,7,6,5,4,8x,1,2,3,4,5,6,7,8,1x/5x,2x/6x,3x/7x,4x/8x,5x/1x,6xp2>5b[4:2]/2xp6<1b[4:2],,,,,,,,,,,,,,,,,,,,,,,,
{16}
8<1[4:6],,,,,,,,B1,,,,,,,,B7,,,,B6,,,,B5,,,,B4,,,,
1>8[4:6],,,,,,,,B8,,,,,,,,B2,,,,B3,,,,B4,,,,B5,,,,
8qq5[12:7],,,,,,3,2,1q5[12:1],,,,,,,,4,,6,,3,,7,,2,,2,,8,,8,,1>5>1[4:3],,,,B8,,,,E7,,,,B5,,,,6<2<6[4:3],,,,B4,,,,E3,,,,B1,,,,1h[4:4],,,,,,,,,,,,,,,,7h[4:4],,,,,,,,,,,,,,,,
{16}4xbh[4:2],,,,,,,,
{64}B4f,C,B1/B7/B8,A1/A8/A7,,,,,,,,,,,,,,,,,,,,,,,,,,,,,
{16}8b>3[12:1]*<5[12:1],,,,8b-4-6-8[8:3],,,,8b,,,3,,,2,,
{16}1-5[12:1],,1,,1/8-4[12:1],,8,,8/3>8[12:1],,3,,7/3,,,,8x-4[12:1],1x,2x-6[12:1],,8,,2,,5h[4:2],,,B7,,,B8,,1-5-3-8[8:4],,,1,,,7,,7hxb[4:2],,,,,,,,1,2,3,4,1,8,7,6,3,5h[16:1],,4,6h[16:1],,5,,
7b-4[12:1],8,6,1,7,,,,2b-5[12:1],1,3,8,2,,,,8b-4[12:1],1,7,2,8,,,,1bv3[12:1]/5bv7[12:1],,,,1/5,,,,6b-1[12:1],5,7,4,6,,,,3b-8[12:1],4,2,5,3,,,,1b-3[12:1]/5b-7[12:1],,,,1b-5[12:1]/5b-1[12:1],,,,1b>4[12:1]/5b<8[12:1],,,,1b/5b,,,,
{12}3,3,7,2,2,6,
{16}1s5b[8:1],,5,,1,,,,
{12}6,6,2,7,7,3,
{16}8z4b[8:1],,4,,8,,,,
{16}3x,2,1,8,5x,6,7,8,
{32}2x,3,4,5,6,7,8,1,2,3,4,5,6,7,8,1,
{16}2xbh[16:11],,,,,,,,,,,1x,,,
{48}1b/2b,3/8,4/7,5/6/D6f,,,
{16},,6xh[8:6],,3,,2,,B1,,,B6,,,B3,,,,3xh[8:6],,6,,7,,B8,,,B3,,,B6,,,,5/B3,,6,,7,,8/E5,,1,,2,,3,,4/7,,,1/8,,,2/5,,7/C,,,3/C,,,1/8,,
2,1,2,1,4,5,4,5,4x,3,2,1,3x,2,1,8,3,7,3,7,2,6,2,6,1x-5[12:1],1x,,5x,1x,,6x,,
{24}4x,3x,2,1,8,7x/3x,2,1,8,7,6x/3x,2,1,8,7,6,5,4,3,2,1,8,7,6,5x/1xbw5[8:1],
&inote_6=(167)
{32},,,,,,,,,,,,,,,,,,,,,,,,,,,,,,3x/7x,2x/6x,
{16}1xq3[4:2]/5xq7[4:2],,,,,,,,,,,,,,,,4s8[4:2]/8s4[4:2],,,,,,,,,,,,,,,,1-6-3[4:2]/5-2-7[4:2],,,,,,,,,,,,,,,,4/8,,,1/5,,,2/6,,3h[16:3]/7h[16:3],,,,
{32}2xb/6xb,1/5,4/8,,,,,,
{16}1b,,,,2,4,3,4,1,,,,7,5,6,4,5,3,3,4,2,2,3,1,3x-7[12:1],,,,2/3,,,,8b,,,,7,5,6,5,8,,,,2,4,3,5,4,6,6,5,7,7,6,8,6x-2[12:1],,,,6/7,,,,
1,8,7,6,5/1,2,3,4,5/8,7,6,5,4/8,3,2,1,
8x,4,8,4,7x,3,7,3,7x,6,3x,2,6x,5,2x,1,
{24}A8,A7,A6,A5,A4,A3,A2,A1,A8,A7,A6,A5,
{16}A4/8,,,5/7,,,1b>5[8:5]*<5[8:5]/Cf,,
{1},
{16}5h[16:2]/6h[16:3],,,,5h[16:2]/6,,6h[16:10],,,,5,,4,,3,,2h[16:3],,,7h[16:3],,,1h[16:2],,8w4[8:1],,,,8,,,,4h[16:2]/3h[16:3],,,,4h[16:2]/3,,3h[16:10],,,,4,,5,,6,,7h[16:3],,,2h[16:3],,,8h[16:6],,1s5b[8:1],,,,,,,,
{16},,7h[8:3],,6,,5,,4h[8:3],,3,,2,,1,,8h[4:3]/3,,,2,,,1<2[4:1],,,,,,,,,,,,2h[8:3],,3,,4,,5h[8:3],,6,,7,,8,,1,,2/4,,8,,5/7,,3v8[12:1]/6v1[12:1],,,,,,,,2v5[8:1],1,3,1,2,,,,7v4[8:1],8,6,8,7,,,,
{12}1,5,3,8,4,6,2-6[12:1],,,2,,,
{16}7-4[8:1]/8,,6,8,7,,1,,2-5[8:1]/1,,3,1,2,,8,,8<1[4:1],,,3,,,1,,8-5b[8:1],,,,,,,,
{16}7h[16:7],,6,,1,,4,,2h[16:7],,3,,8,,5,,7/8,,5,,1/2,,4,,3v8[8:1]/7v4[8:1],,1/5,,3/7,,,,2h[16:7],,3,,8,,5,,7h[16:7],,6,,1,,4,,1/2,,4,,7/8,,5,,1s5[8:1],,,8b,,,,,
{4}3<6[4:3],,,,2>7[4:3],,,,1>8[4:3],,,,1x-7-3-5[4:2],,,,
{16}2,4,3,7,5,6,1h[4:2],,,,5,,6,,7,,8,5,6,1,4,3,8h[4:2],,,,4,,3,,2,,1,8,2,7,1,8,3,6,1-5[8:1],,8-4[8:1],,1<2[4:2],,8,,,,,,,,,,E6,,,,B3/B7,,,,
{16}1/2-5[12:1],,3,1,2,,6,,7-4[12:1]/8,,6,8,7,,3,,1/2-5[12:1],,3,1,2,,6,,6bv1[12:1]/4b-1[12:1],,,,4b/6b,,,,7v4[12:1]/8,,6,8,7,,3,,1/2v5[12:1],,3,1,2,,6,,4>8[4:1],,,,8<4[4:1],,,,4w8[8:1],,,,A4,,,,1,3,2,,8,6,7,,1,3,2,4,3,5,4,6,3,1,2,,6,8,7,,1,6,3,4,2,8,5,6,4/7,,,2/5,,,3/6,,1h[8:4]/8,,,,,,,,2,3,4,5,
{32}6/2b,3,4,5,6,7,8,1,
{16}2/5x,,,4/7x,,,3/6x,,1/2-5[12:1],,3,4,2,,8,,7-4[12:1]/8,,6,5,7,,1,,1/2-5[12:1],,3,4,2,,8,,3bv1[12:1]/7bv5[12:1],,,,3b/7b,,,,3-8[12:1]/4,,2,1,3,,4,,5/6-1[12:1],,7,8,6,,5,,4b-1[12:1],,3,,4b/7b-2[12:1],,6,,7b/5bw1[12:1],,4,,5b,,,,
2,4,3,,7,5,6,,3,1,2,8,1,7,5,6,3,4,2,,6,5,7,,4,8,3,7,2,6,1,5,2,4,3,5,4,6,3,7,
{24}1,8,1,8,1,8,1,8,1,8,1,8,
{16}1-5b[0.99##0.15],,,,,,,,,,,1b/8b/Cf,,,,,
{16}8x,,,,7,5,6,5,8,,,,2,4,3,5,4,6,6,5,7,7,6,8,6x-2[12:1],,,,6/7,,,,1x,,,,2,4,3,4,1,,,,7,5,6,4,5,3,3,4,2,2,3,1,3x-7[12:1],,,,2/3,,,,
2,,2h[8:1]/1,,1,8,7,6,5,,5h[8:1]/4,,4,3,2,1,8,,8h[8:1]/7,,7,6,5,4,2-6[12:1]/3-8[12:1],,,,2/3,,,,7,,7h[8:1]/6,,6,5,4,3,2,,2h[8:1]/1,,1,8,7,6,5/2,,,4/7,,,1pp4[4:1]/8qq5[4:1],,1b/8b,,,,,,,,
,,3h[4:1],,2,,1,,8<4[8:1],,,2,8,,1,,,,6h[4:1],,7,,8,,1>5[8:1],,,7,1,,8,,,,1<6[8:1],,2,,3,,4>1[8:1],,5,,6,,7,,8-4<7[4:1],,,1,8,,3,,2v5[6:1],,,8,2,,7,,
{16}8,4,8,4,7,3,7,3,6,2,5,1,4,8,5,1,6,2,7,3,6,2,7,3,8x-4[12:1],8,,1,8,,2,,
{24}3x,2,1,8,7,6,5x/3x,2,1,8,7,6,5x/4x,3,2,1,8,7,6x/4x,3,2,1,8,7,
{4}6x/2bq5b[4:3],,,,
{16}8<1[4:6],,,,,,,,B1,,,,,,,,B7,,,,B6,,,,B5,,,,B4,,,,
1>8[4:6],,,,,,,,B8,,,,,,,,B2,,,,B3,,,,B4,,,,B5,,,,
8qq5[12:7],,,,,,3,2,1q5[12:1],,,,,,,,4,,6,,3,,7,,2,,2,,8,,8,,
1-5[4:2],,,,B2/B3,,,,8,,,,6,,,,8-4[4:2],,,,B7/B6,,,,1,,,,3,,,,
4w8b[3.6##0.12]/6h[2:1],,,,,,,,,,,,,,,,3h[2:1],,,,,,,,,,,,,,,,5hb[2:1],,,,,,,,
{64}A4,B4,Cf,B1/B7/B8,A1/A8/A7,,,,,,,,,,,,
{8},,8b-4b[12:1]/1b-3b[12:1],,8b-6b[12:1]/1b-5>2b[8:3],,
{16}8b/1b,,,6x,,,8x,,1,4,3,,8,5,6,,4,7,3,6,2,5,1,4,8x-4[12:1],1x,2x-6[12:1],,8,,2,,5h[4:2],,,7,,,8,,1-6-3-8[4:2],,,4,,,7,,7bh[16:8],,,,,,,,
1,2,3,4,
{32}8-4[12:1],7,6,5,4,3,2,1,
{16}8b,,,B3/B5,,,B2/B6,,
1b-5[12:1],8,3,4,1,,6,,8b-4[12:1],1,6,5,8,,3,,1b-5[12:1],8,3,4,1,,6,,7b-4[12:1]/4b-1[12:1],,,,7b/4b,,,,8b-3[12:1],7,4,5,8,,6,,1b-6[12:1],2,5,4,1,,3,,4b-1[12:1],,3,,4b/6b-3[12:1],,7,,6b/1b-5b[12:1],,2,,1b/8b,,,,
{16}4,6,2,,5,3,7,,5,8,4,7,3,6,2,5,1,4,3,,8,5,6,,4,8,3,7,2,6,1,5,
{24}8,4,8,4,8,4,8,4,8,4,8,4,7,3,7,3,7,3,7,3,7,3,7,3,
{16}3xh[8:4]/7xh[8:4],,,,,,,,,,,3/7,,,
{48}3b/7b,4b/8b,1b/5b,2b/6b,,,
{16},,7xh[8:6],,2,,3,,B4,,,B7,,,B2,,,,2xh[8:6],,7,,6,,B5,,,B2,,,B7,,,,8-6>5[8:1],,1,,2,,3-1<8[8:1],,4,,5,,6,,1/7,,,3/C,,,6/C,,2/8,,,6/C,,,3/C,,
2,1,2,1,3,4,3,4,1,8,5,6,1,8,3,4,1,6,8,7,4,5,3,6,
{16}2/7,2/7,,8,1,,6b/3b,,
{24}4,5,4,5,4,5,3,6,3,6,3,6,2,7,2,7,2,7,1-5b[12:1],8,2,7,1,8,1b/Cf,
&inote_7=(167)
{1},,,,,,,,,,,,,,,,,,,,,,,,,,,,,,,,,,,,,,,,,,,,,,,,,,,,,,,,,,,,,,,,,,,,,,,,,,,,,,,,,,,,,,,,,,,,,,,,,,
{16},,,,,,,,
{16}1-5[12:1]/8,2/7,,8,1,,6,,
{24}4,5,4,5,4,5,3,6,3,6,3,6,2,7,2,7,2,7,1-5[12:1],8,2,7,1,8,1b/Cf,
