&title=私は雨
&artist=稲葉曇
&first=0.01
&des=アメ星人
&lv_6=13
&inote_6=(144){1},
{4}2-4[8:1],8-6[8:1],1-5[8:1],7-4[8:1],
{8}1-3[8:1],,8-4[8:1],,1,1x-5[8:1],,1x,
{8}7,6,5,4h[4:1],,6qq7>4[8:5],,1x,
{8},,,,,C,,,
{4}7-5[8:1],1-3[8:1],8-4[8:1],2-5[8:1],
{8}8-6[8:1],,1-5[8:1],,8,8x-4[8:1],,8x,
{8}2,3,4,5h[4:1],,3v6V42<5[8:5],,8x,
{8},,,,,C,,,
{4}2-4[8:1],8-6[8:1],1-5[8:1],7-4[8:1],
{8}1-3[8:1],,8-4[8:1],,1,1x-5[8:1],,1xV72-6-3-5[8:7],
{1}8xh[1:1],
{4},,E8,E7,
{8}2b-4[8:1],5,2,,5,6-4[8:1],5,6,
{8},3,2^5[8:1],,2,8-4[8:1],,8x,
{8}1,2,3/5,7,6/5,3,4,1h[4:1],
{16},,8,,8,,1,8,2,,3,,6/4,,5,,
{8}7b-5[8:1],4,7,,4,3-5[8:1],4,3,
{8},6,7^4[8:1],,7,1-5[8:1],,1x,
{8}8,7,6/4,2,3/4,6,5,8h[4:1],
{16},,1,,1,,8,1,7,,6,,3/5,,4,,
{8}2b-4[8:1],5,2x,8,2-8[8:1],5,2x,4,
{8}1-3[8:1],6,1x-5[8:1],8x-6[8:1],1x-3[8:1],8x-4[8:1],,,
{16}3x,,3,4,2,,8,,1/7,,5,,6,,2-6[8:1],,
{8},2b/4bh[1:1],,,,,,,
{1},
{4}1b/Cf,1,1/E8,1/E7,
{4}1/E6,2/E5,3/E8,4/E7,
{4}1x/E6,1/E5,1/E8,1/E7,
{4}2/E6,3/E7,4/E8,5/E1,
{4}8bx/E5,8/E4,8/E3,8/E2,
{4}8/E5,7/E4,6/E3,5/E2,
{8}8x/E5,,7/E4,,6/E3,,5/E2,4x-6[32:3],
{8},2x-5[8:1],,7x-4-8[16:3],,1x,,3x,
{8}5b/6xh[8:1],2,3h[8:1]/4,7,5/6h[8:1],1,4/3h[8:1],8,
{8}7/5,6,2/4,1,2/8,3,4/7,5,
{8}6xh[8:1],7,5h[8:1],8,4h[8:1],1,3h[8:1],2,
{8}1/2,8,1/7,2-5[8:1],8-4[8:1],2,8,1,
{8}6/5xh[8:1],8,4h[8:1]/3,1,6/5h[8:1],8,3/4h[8:1],1,
{8}2^5[8:1],6^1[8:1],2x,6x,4x-8-2b[16:3],4x-6b[12:1],,,
{8},7x/3x,8,1,2/6,3,5,4,
{8}7V13[8:1],3v5[8:1],,,4h[16:1],4h[16:1],6h[16:1],5h[16:1],
{8}4b/3xh[8:1],7,6h[8:1]/5,2,4/3h[8:1],8,5/6h[8:1],1,
{8}2/4,7,6/5,1,3/4,8,5/7,2,
{8}6xh[8:1],7,3h[8:1],2,5h[8:1],8,4h[8:1],1,
{8}7,2-4b[12:1],6V48b[16:3],2,6,,1,7,
{8}2/4xh[8:1],3,7/5h[8:1],6,1/4h[8:1],3,8/5h[8:1],6,
{8}2^5[8:1],7-4[8:1],2x-8z4[16:5],7x-1s5[16:3],,,,,
{8}2x/6x,3,5,4,7/3,6,4,5,
{8}3/4,2/5,1-5[8:1]/6,8/7,1x,8,7/2,3/6,
{8}4x-1b[8:1]/5x-8[8:1],3x/6x,5b/4b,,8hx[8:1]/7,6,1h[8:1]/2,3,
{8}8h[8:1]/6,5-7[12:1],1x-3[12:1],4x-8[12:1],,,1x,2x,
{8}3/4h[8:1],8,6/5h[8:1],1,2/3h[8:1],4,7/6h[8:1],5,
{8}1/2,3/4,5/6,7/8,2-4[32:3],8-6[32:3],1-5[8:1],8,
{4}1bw5[8:1],1b<2[4:1],1bqq3[4:1],,
{16},,1,,2,,3x,4,2,,6x,5,7,,2x,4,
{8}1b-7[8:1],7b-3[8:1],3bV15[4:1],,,,,8,
{8}7/4,6,5/2,4,3/7,2,1,8,
{16}2-4[32:3],1,3,,2x,,6-8[32:3],5,7,,6x,,1,,2x,4,
{16}3,,7x,5,6,,1x,5,2,4,3,,8,,1/7,,
{8}3xv2[8:1]/5xv6[8:1],6xV48[4:1]/2xV48[4:1],3b/5b,,,,,8,
{8}1/7,2,3/4,5,6/4,7,6/8,1,
{8}2x^5[8:1],5xqq8[16:5],2b,,,,,7,
{8}6/8,5,4/3,1,2/8,3,4/5,6,
{8}7xv6[8:1]/1xv2[8:1],2xV84[4:1]/6xV84[4:1],7b/1b,,,,,3xh[4:1],
{8},8-4[8:1],,4x-7V51[16:5],,,,,
{8}2-4[8:1],8x,,8,1-5[8:1],7,,7,
{8}2-4[8:1],8,,8,1-5[8:1],7,,7,
{8}8-6[8:1],5x,,5,1-5[8:1],4,,4,
{8}8-6[8:1],5,,5,1-5[8:1],4,,4,
{8}3-5[8:1],6x,,6,2-6[8:1],7,,7,
{8}8-2[8:1],5x,,5,7-5[8:1],4,,4,
{8}3-1[8:1],4x,,4,8-4[8:1],7-5[32:3],8x,7xv6-4[57.6#10:1],
{1},,,
E
