&title=Re-awake
&artist=阿保剛
&first=0
&des="狂気の天才サイエンティスト"
&lv_5=13+
&inote_5=(125){4},,,,
{4}1-4[4:2]/6b,,,,
2-5[4:2]/6b,,,,
3-6[4:2]/6b,,,,
4-7[4:2]/6b,,,,
{16}3b/6b,,5,4,,6,4,,
5,3,5,4,6,,2,,
5b,,4,6,,3,5,,
4,6,4,5,4,,7,,
2b,,5,4,,6,3,,
5,4,6,3,5,,1-4[8:1],,
8,,7,,6,,5,,
2,6,3,7,{32}4,5,6,7,8,1,2,3,
{16}4-7[8:1]/7b,,,3h[16:3],4,,,,
7/1,,2,,7/3,,4,,
5-1[8:1]/6,,,6h[16:3],5,,,,
6/2,,3,,6/5,,,,
5-2[8:1]/2,,,6h[16:3],5,,,,
1/6,,2,,3/6,,4,,
5/7,,3-7[8:1]/7,,,,2-6[8:1],,
,,8,,8-5[8:1],,,,
4^7[8:1]/8,,,3h[16:3],4,,,,
7/1,,2,,8-4[8:1]/3,,4,,
5^8[8:1]/8,,,3h[16:3],5,,,,
6/4,,3,,4-7[8:1]/2,,1,,
8-4[8:1]/4,,,2h[16:3],8,,,,
5/1,,2,,6-1[8:1]/3,,4,,
6b/5-2[8:1],,,,8-5[8:1]/5b,,,,
8b/1^6[8:1],,2,,3,,4,,
{16}4-7[8:1]/7b,,,3h[16:3],4-1[8:1],,,,
8^3[8:1],,7,,6,,5,,
4-7[8:1]/2b,,,3h[16:3],4,,,,
4/7h[8:1],3,2,,8/6,,,,
5-2[8:1]/2b,,,6h[16:3],5-8[8:1],,,,
1^6[8:1],,2,,3,,4,,
7/5,,6-2[8:1]/4,,,,7-3[8:1],,
,,1,,1-4[8:1],,,,
5^2[8:1]/1b,,,6h[16:3],5,,,,
2/8,,7,,1-5[8:1]/6,,5,,
4^1[8:1]/1b,,,6h[16:3],4,,,,
2/5,,6,,5-2[8:1]/7,,8,,
1-5[8:1]/5b,,,7h[16:3],1,,,,
4/8,,7,,3-8[8:1]/6,,5,,
3b/4-7[8:1],,,,1/4b,,,,
{12}8h[12:2]/5^2[8:1],,5,{16}8,7,6,5,
{16}4h[8:1]/1b,,2,5,3,,1/7h[8:1],,
2,6,3,,1/4-7[12:1],,2,,
3,,2,6,1,,3/4h[8:1],,
2,5,1,,3/7-4[12:1],,2,,
1,,2,5,3,,1/7h[8:1],,
2,6,3,,1/4-7[12:1],,2,,
3,,2,6,1,,3/4h[8:1],,
2,5,1,,3/7-4[12:1],,2,,
1-5[12:1],,1,,7-4[12:1],,7,,
2^5[12:1],,1,,8h[8:2]/2,,,,
4-7[12:1],,3,,2,,4-8[12:1],,
3,,2,,3-6[12:1],,2,,
1,,8,8,8,,5,5,
5,,3,4,2,5,1,1,
7b,8,6,1,5,2,4b,3,
2,4,1b,3,8b,2,7,1h[16:3],
{16}5b,,6,1,7,,5/3h[8:1],,
6,2,7,,5/8-3[12:1],,6,,
7,,6,2,5,,7/8h[8:1],,
6,1,5,,7/3-8[12:1],,6,,
5,,6,1,7,,5/3h[8:1],,
6,2,7,,5/8-3[12:1],,6,,
7,,6,2,5,,7/8h[8:1],,
6,1,5,,7/3-8[12:1],,6,,
5-1[12:1],,,,2,3,4-8[12:1],,
,,2-6[12:1],,,,2h[8:4],,
,,7,6,5,,5,6,
3^6[8:1]/7^2[8:1],,,,7-3[8:1]/3,,,,
2h[8:6]/7b,,,,,,,,
6h[8:2],,,,,,,,
3b,6,5,6,3,5,4,5,
2,4,3,3,3,3,3,3,
{16}3^6[8:4],,,,2,,,,
1,,,,8,,,,
7^4[8:4],,,,,,,,
1,,,2,,,3,,
4^7[8:4],,,,,,2,3,
4-8[8:1],,,,,,,,
7h[8:3],,,,,,1,,
6,,2,,5,,3,,
4^1[8:4],,,,,,5,,
5,,,5,,,6,,
7-2[8:1],,,6,,,5,,
8-3[8:1],,,7,,,6,,
5^2[8:4],,,,6,,,,
5,,,,4,,,,
{8}1h[8:4],,,4h[384:1],8h[384:1],5h[384:1],8h[384:1]/1h[384:1],6h[384:1],
{16}2-6[8:1]/4b,,,,1-5[8:1],,,,
8-4[8:1],,,,7-3[8:1],,,,
2b,,,,1/5-8[8:1],,,,
3,,,2,4-7[8:1],,1,,
3b,,,2,3-6[8:1],,1,,
2,,,,2-5[8:1],,1,,
8b,,,7,1-4[8:1],,6,,
5,,,,8-3[8:1],,7,,
6b,,6,,6,,6,,
3b,,3,4,3,,3/6,,
7b,,7,5,7,,7/2,,
1b,,1,4,1,,1/7,,
{16}8b/6b,,4/5,,2,4,3,,
7/5,,8/1,,2,4,3,,
5/8,,2/7,,1,6,3,,
4/5,,3/7,,1-5[8:10],8,8,,
2,,2,,8,7,6,,
3,,3,,1-5[12:1],8,7,,
{4}1b,,,,
{16}2/6h[8:6],,,,1,,,,
8,,8,,8^5[12:1],1,2,3,
{16}8b/4h[384:1],,3h[384:1],4,2h[384:1],,1h[384:1],7,
8h[384:1],,7h[384:1],5,6h[384:1],4,5h[384:1],3,
4h[384:1],,3h[384:1],5,2h[384:1],,1h[384:1],6,
8h[384:1],,7h[384:1],4,6h[384:1],3,5h[384:1],2,
4h[384:1],,3h[384:1],6,2h[384:1],,1h[384:1],5,
8h[384:1],,7h[384:1],3,6h[384:1],2,5h[384:1],1,
4h[384:1],,3h[384:1],7,2h[384:1],,1h[384:1],4,
8h[384:1],,7h[384:1],2,6h[384:1],1,5h[384:1],8,
4-7[8:1],,4,,1-4[8:1],,1-6[8:1],,
1-5[8:1],,1,,1^4[8:1],,,,
1-5[8:1],,7,7,1-4[8:1],,6,6,
1-6[8:1],,6-3[8:1],,,,,,
5,,3,3,3,,1,1,
1,,6,5,7,4,8,8,
2b,1,4,5,8,7,4b,5,
1,6,1b,7,{32}1b,2,3,4,5,6,7,8,
{16}5b/1h[384:1],,2h[384:1],1,3h[384:1],,4h[384:1],6,
5h[384:1],,6h[384:1],8,7h[384:1],1,8h[384:1],2,
1h[384:1],,2h[384:1],8,3h[384:1],,4h[384:1],7,
5h[384:1],,6h[384:1],1,7h[384:1],2,8h[384:1],3,
1h[384:1],,2h[384:1],7,3h[384:1],,4h[384:1],8,
5h[384:1],,6h[384:1],2,7h[384:1],3,8h[384:1],4,
1h[384:1],,2h[384:1],6,3h[384:1],,4h[384:1],1,
5h[384:1],,6h[384:1],3,7h[384:1],4,8h[384:1],5,
1-5[8:1],,,,2,,1-4[8:1],,
,,1-6[8:1]/6-1[8:1],,,,1b/6b,,
,,6/1,5/2,4/3,,2/5,1/6,
8-4[8:1]/7-3[8:1],,,,7b/8b,,,,
2b,6,5,6,2,6,5,6,
2,6,5,6,2,6,5,6,
1b,5,5,5,1,4,4,4,
1,3,3,3,3,3,3,3,
{4}3^6[8:16],,,,
,,,,
,,E
