&title=下个夏天的烟火
&artist=磁带君,海伊
&first=2.809999
&lv_5=13+
&des_5=hiyollyfish with haiyi
&inote_5=
(150){8}3/5<2[4:3],4,{4}5,{8},,,,,5h[8:7],
{4}3,{8},,,,3,
2,{4}1-5[8:1]/7-3[8:1],{2}7/1,
{8}4/3-6q2[2:1],5,{4}3/6,{8},,,,2-4b[8:1],
5pp4[8:15],{4}2,{8},,,,,2,
{4}2,{8},,,,,3,
{4}3,5/2,{8}E4,E7,
E2,E5,{4}C,4/7,C,
{8}7/1v3<1[4:3],8,{4}1,{8},,,,,6h[8:7],
{4}2,{8},,,,4qq4pp4[2:3],
5,{4}4/6h[4:1],,7h[4:1],
,8h[4:3],{8},,,,4pp4[8:5]*qq4[8:5],
5,{4}4,{8},,,,,7h[1:1],
{4}3h[8:7],{16},,,,,,,,,,,,4,
5,{8}3,{16}5,4,{8}6,{16}4,5,{8}2,
{16}5,4,{8}7h[#1.6],3b,,,,,2,
,1w5[16:1],,B1f/1bqq3[2:1],,5x,,4h[8:1],
,5-1[8:1],6,7/5,,2/6,{16}4,5,{8}2x,
{4}4/8w4[8:1],8,{8},6/4,5,4-8[8:1],
,4/3,,4/7<2[4:3],{16},,7,1,{4}2x,
{8}1,8,7,6h[2:1],,,,3-6[16:1],
,4-1[16:1],,5-8[16:1],,5,{4}4>1[8:1],
4<7[8:1],4h[8:3],{8},8,7/3,6-1[8:1]/2-5[8:1],
,6/2,,4/8<4[4:1],3h[4:1],8,,2,
1,1/5,{4}5<8[8:3]/1>4[8:3],{8},,,,,3,
{4}5p1[16:5]*q1[16:5],{8},,,,8qq8[2:1],
1,{4}8,{2}3h[2:1],
{8}7,8/2,1<5[4:1],2v5[8:1],,,,,4pp4[8:5]*qq4[8:5],
5,{4}4,{8},,,,,5qq5[2:1]*pp5[2:1],
{4}5,{8},,,,,2-4b[8:1],
5pp4[8:11],2,,,3,3,
2,2,{4}1h[4:1],{8},,,,5pp4[4:3]/3qq4[4:3],
2,{4}5,{8},,,,,3,
{4}5s1[4:1],{8},,,,4/8-4[16:1],
3,{4}8/2-6[16:1],2/7-3[16:1],7/1-5[16:1],
1/8<1[8:5],8-4b[8:1],{8}8x,A4,,,2xv5[8:1],
3,{4}2/4<7[8:1],4x,C,
{8}7xv4[8:1],6,{4}7/5>2[8:1],5x,Ch[4:1],
{8},6/4,5/3,{16}6,3,{8}5,{16}3,6,{4}5pp4[8:7],
2-4b[8:1],2,{8},,,1b,
,,,2b/8-5[8:1],3,8/4-8[8:1],,4x/1>4[8:1],
,1,{4}8-5[8:1]*v3[8:1],8,{8}4V28[8:1],5,
4/6h[8:3],,,3qq4[8:5],5,3/6-4b[8:1],,6,
,6,{4}6,7/1pp1[8:3],{8}5/1,6,
7,,,7b/1>4[8:1],6,1/5-2[8:1],,5x/7<4[8:1],
,1/7,{4}1-5[8:1],1/8qq8[4:1],{8}8/4,3,
{4}2-5[8:1],{8}2/8b,1bx-6[8:1],,1/3b,{4}2bx,
3/5b-8[8:1],{8}5/2b,1bx-4[8:1],,1/7b,{4}6bx<1[8:1],
{24}6/2b,3,4,5/A1f,,,,,,{8}7b/1-4[8:1],6,1/5-1[8:1],,5x/8<5[8:1],
,8,{4}1-4[8:1]*v6[8:1],1,{8}5V71[8:1],4,
5/3h[8:3],,,8b,7,4qq5[8:3]/6pp5[8:3],,4/6,
,,,,{4}5/1V35v2[4:1],{8}1/6,7,
8,,,2b/8-5[8:1],3,8/4-7[8:1],,4x/2>5[8:1],
,8/2,{4}8-4[8:1],8/1pp1[4:1],{8}1/5x,6,
{4}7-4[8:1],{8}7/1b,8bx-3[8:1],,8/6b,{4}7bx,
6/2b-5[8:1],2/1b-4[8:1],1/8b-5[8:1],8/7b-4[8:1],
7/1bw5[2:1]*w5[2:1],1b,{8},,,,7/3,
6/2,{4}1/5,4<7[8:3]/8>3[8:3],8/4,
,Ch[8:9],{8},,,,,,,,,,,2/7,
,8/1w5[16:1]*-5[16:1],,B1f/1bqq3[2:1],,5x,,5,
5,6,6,7h[16:3]/2>5[8:1],3,2,6<1[8:1],7,
{4}6/4,{16}4,5,{8}2h[4:1],,8-4pp5[2:1],4qq3[8:3],8,
{16},,,,,,,,,,4,6,{8}3,7/2,
8>2v3[8:3],8<6v5[4:1],,,,,,4/6pp5[8:7],
,6/3-5b[8:1],,3,,3,{4}3,
4qq4[4:1]*pp4[4:1],4,{8},6,1,8-4[8:3]`7p1[8:3],
,,,,,8,3,4/7,
5/6pp5[4:5],4,{4}6/3,{8},,,,,3-5b[8:1],
{4}2,,C,
{8}7/3,6,{4}5-2[8:1],{2}5/6-1[8:1],
{8}7/2,6/3,{4}5-1[8:1],{8}5/4,3,,,2/6,
3/7,{4}4v2[8:3]/8v6[8:3],{8},,,,,4p6[2:1]/8p2[2:1],
{4}C,{8},,,,,4<6-3<4q1-4[2:3],
{4}4,{8},,,,,5,
{4}5,6,{8}7,7,
3<3[4:3]*<3[4:3],4,{4}3,{8},,,,,5,
{4}4z8[4:1],{8},,,,5/1>4[16:1],
6,{4}1/7v4[16:1],7/2>5[16:1],2/8v5[16:1],
8/1>8[8:5],1x-5b[8:1],{8}1x,A5,,,2-7[8:1],
3,{4}2/4-1[8:1],4/3,C,
{8}7-2[8:1],6,{4}7/5-8[8:1],5/6,Ch[4:1],
{8},5/4,{16}8,7,{8}6h[8:1],{16}3,2,{8}1h[8:1],{16}7,6,{8}5h[8:1],
{16}3,2,{8}1h[8:1],{4}8-5[8:1],8/4-1[8:1],4/6>3[8:1],
{8}6/Cf,,,5/8bx<5[8:1],7,{24}8/4v7[8:1],3,2,,,,{8}4x/1>4[8:1],
,1,{4}8v3[8:1]*<5[8:1],8,{8}4qq8[4:1],5,
4/6h[8:3],,,2b-5[8:1],3,2/8-3[8:1],,8/4<8[8:1],
,4x/2x,{4}1,2<1-4[8:3]/3pp4[8:3],2/3,
{8},,,4/7b<4[8:1],6,{24}7/3-7[8:1],2,1,,,,{8}3x/1>4[8:1],
,8/1,{4}7-3[8:1],7/4<7[8:1],{8}4x/2,1,
{4}8-4[8:1],{8}8b/1,2bx-6[8:1],,2/5b,{4}4bxqq4[4:1]*pp4[4:1],
{8}4b/B4f,,,3x/5x-1[8:1],,5,{4}2>5[8:1],
{24}2/6,7,8,1/A5f,,,,,,{8}4/1b>4[8:1],2,{24}1/5v2[8:1],6,7,,,,{8}5x/8<5[8:1],
,8,{4}1v6[8:1]*>4[8:1],1,{8}5pp1[4:1],4,
5/3h[8:3],,,6bpp5[8:5],4,6/3-5b[8:1],,3,
,3,{4}3,2/8qq8[8:3],{8}4/8,3,
2,,,5/2b>5[8:1],3,{24}2/6-2[8:1],7,8,,,,{8}6x/8<5[8:1],
,1/8,{4}2-6[8:1],2/5>2[8:1],{8}5x/7,8,
{4}1-5[8:1],{8}6/1b/B1f,7bx-3[8:1],,7/4/B7f,{4}2bx-5[8:1],
2/E3f/8bx-5[8:1],{16}8/1bx/E8f,1x,{8}1x,{16},,2/6,2/6,{8}6/2,5x/3x-7[8:1],
,3/5-2[8:1],,5/8-3[8:1]*-5[8:1],,8,,,,6h[8:7]/B5/E5,
,B3/E4,,B2/E2,{4}E1/B1,
4qq4[8:3]*pp4[8:3],4,{8},,,3/5pp4[4:5],
,2-4b[8:1],,2,,3,{4}3,
2-4b[8:1],2,{8},B7,,6/4qq5[4:5],
,7-5b[8:1],,7,,6,{4}6,
7-5b[8:1],7,{8},B5,,4/6,
,2/8,,3qq4[8:5]/5pp4[8:5],,,,,,,,B4,
,B3,,5/3,
,7/1,,6pp5[8:5]/4qq5[8:5],,,,,,,,B2,
B1,B8,,4/5,
,3/6,,2qq7[2:1]*<7[2:1],{16},,,,,,,,,,,,5x,
8,4,7,3,6,2,5h[8:1],{8}1,2/5,
3/6,4/7,5/8,{16}1x,5,8,4,7,3,6,2h[8:1],{8}5,
2b/6b,3b/7b,4b/8b,1b/5bh[8:7],,,,,,,1bw5[16:1]*w5[16:1],
1b,{4}B1f/1bqq3[2:1],5xh[8:3],
{8},,,B7,,,,,,,,B4,
,,,,,,,B6,
,,,,,,,B3,
,,,,,,,B5,
,,,,,,,B2,
,,,,,,B8,
B7,,B3,{4}B4,
1/7b<4[8:1],{8}7,3b>8[8:1],,3/5,{4}4b-8b[8:1],
{8}2/4,1b/A8f,,5/8bxv5[8:1],7,{24}8/4<7[8:1],3,2,,,,{8}4x/1v4[8:1],
,1,{4}8qq6[8:1]*pp2[8:1],8,{8}4qq1[4:1],5,
4/6,,,7b,2/6,3qq4[8:3]/5pp4[8:3],,5/3,
,,{4}A4f,5/1pp3pp5[8:3],{8}6,7,
8h[8:3],,,2bv5[8:1],3,{24}2/6>3[8:1],7,8,,,,{8}6x/1v6[8:1],
,1/2,{4}2p5[8:1],2/7,{8}6xp1[8:1],5,
{4}4/6,{8}3b,2bxv5[8:1],,2/8b,{4}1bx<6[8:1],
1/3b-8[8:1],3/2b-5[8:1],2/1b-6[8:1],1/8b-3[8:1],
8/7bp4[2:1],7/2b-5[4:1],{8},,,,3/6,
4/7,{4}5/8,4v3>7v6[8:9],7,
6,5,{8},,,,E3,
B3,{4}B4,{8}B8,B7,{4}E7,
E
