&title=Silly Love
&artist=DÉ DÉ MOUSE
&first=0
&des=Luner
&lv_5=13+
&inote_4=
&inote_5=(153)
{1}
,
{16}
1-5[8:1],,,,
7-4[8:1],,,,
3-8[8:1],,,,
,,5s1[8:3],,
,,8,,
1,,2,,
3V58[8:3],,,,
8,,7,,
,,,,
,,1h[8:1],,
,,,,
,,2-6[8:1],,
,,4-7[8:1],,
,,8,,
1-5[8:1],,,,
,,,,
8-4[8:1],,,,
2-5[8:1],,,,
6-1[8:1],,,,
,,4z8[8:3],,
,,1,,
8,,7,,
6V41[8:3],,,,
1,,2,,
,,,,
,,8h[8:1],,
,,,,
,,7-3[8:1],,
,,5-2[8:1],,
,,1,,
8-4[8:1],,,,
,,,,
12,,,,
1/2-5[8:1],,,,
8h[4:1],,,,
,,6/7h[4:1],,
,,8,,
1/2-5[8:1],,3,,
8,,,,
45,,6,,
78,,,,
8/7-4[8:1],,1h[8:1],,
,,,,
,,5/4h[4:1],,
,,3,,
1/2-5[8:1],,3,,
8h[4:1],,,,
4,3,2,,
87,,,,
8/7-4[8:1],,,,
1h[4:1],,,,
,,3/2h[4:1],,
,,1,,
8/7-4[8:1],,6,,
8,1,2,3,
5,,6,,
45,,45,,
36,,36,,
27,,27,,
18,,18,,
1,8,1,8,
1,8,1,8,
{32}1,2,3,4,
5-1[8:1],,7,,
,,,,
5b,,,,{16}
8qq3[8:5],,,,
,,,,
4,,,,
5^8[8:3],,,,
,,,,
,,,,
1,2,3,4,
5,4,3,2,
1pp6[8:5],,,,
,,,,
5,,,,
4^1[8:3],,,,
,,,,
,,,,
8,7,6,5,
6,7,8,1,
4q5[8:5],,,,
,,,,
8,,,,
1^6[8:3],,,,
,,,,
,,,,
1,2,3,4,
1,2,3,4,
5p4[8:5],,,,
,,,,
1,,,,
8^3[8:3],,,,
,,,,
,,,,
8,7,6,5,
8,7,6,5,
8-4[8:1]/4,,,,
28,,,,
1-5[8:1]/5,,,,
17,,,,
8-4[8:1]/4,,,,
28,,,,
15,2,3,4,
5,4,3,2,
1-5[8:1]/5,,,,
71,,,,
8-4[8:1]/4,,,,
82,,,,
1-5[8:1]/5,,,,
71,,,,
84,7,6,5,
6,7,8,1,
2-6[8:1]/4,,,,
28,,,,
7-3[8:1]/5,,,,
71,,,,
2-6[8:1]/4,,,,
28,,,,
15,2,3,4,
1,2,3,4,
1,,1,,
2,,2,,
3,,3,,
4,,4,,
5,4,6,3,
7,2,8,1,
8,7,6,5,
8,7,6,5,
8b/4,,3^8[8:1],,
45,,3,,
6^3[8:1],,,,
68,,1^6[8:1],,
2,,1,,
3,,2,,
18,2,3,4,
65,4,3,2,
71,,6^1[8:1],,
54,,6,,
3^6[8:1],,,,
31,,8^3[8:1],,
7,,8,,
6,,7,,
82,7,6,5,
46,7,8,1,
24,,3^6[8:1],,
12,,3,,
8^3[8:1],,,,
68,,5^8[8:1],,
4,,5,,
3,,2,,
15,2,3,4,
15,2,3,4,
15,,6^3[8:1],,
87,,6,,
1^6[8:1],,,,
31,,4,,
5,3,7,1,
8,2,6,4,
8,7,6,5,
8,7,6,5,
8b/4b,,3-8[8:1],,
45,,3,,
6-3[8:1],,,,
68,,1-6[8:1],,
4,,1,,
5^8[8:1],,3,,
1^6[8:1],2,3,4,
5,4,3,2,
71,,6-1[8:1],,
54,,6,,
3-6[8:1],,,,
31,,8-3[8:1],,
5,,8,,
4^1[8:1],,6,,
8^3[8:1],7,6,5,
6,7,8,1,
24,,3-6[8:1],,
12,,3,,
8-3[8:1],,,,
68,,5-8[8:1],,
4,,5,,
3,,2,,
15,26,37,48,
1,2,3,4,
15,,15,,
26,,26,,
37,,37,,
48,,48,,
4,8,3,7,
2,6,1,5,
8,7,6,5,
84,73,62,51,
8h[4:2],,,,
,,,,
4pp1[4:3]*qq7[4:3],,,,
4b,,,,
,,,,
,,,,
,,8,8,
1qq6[4:2],8,2,,
1b,,,,
,,,,
4pp1[4:3],,,,
4b,,,,
,,,,
,,,,
5,,,6,
6qq3[4:2],,7,,
6,,,,
,,,,
8pp5[4:3]*qq3[4:3],,,,
8b,,,,
,,,,
,,,,
,,4,4,
5qq2[4:2],4,6,,
5,,,,
,,,,
8w4[4:1],,,,
8b,,,,
,,,,
,,,,
,,3-6[306#4:1]*-6[306#4:1],,
,,,,
(124)
{16}
3^8[8:1],,4,,
3/5h[4:1],,,,
6^1[8:1],,,5,
6,,4,,
3^8[8:1],,4,,
3,5,,,
6p4[8:2],,5,,
6/4,,,,
3^8[8:1],,5,,
3/7h[4:1],,,,
5q2[8:1],,,4,
5,,3,,
4p7[8:1],,5,,
4/6,,5,,
{24}6^1[8:1],,5,,4,,
62,,,3,4,5,{16}
2^7[8:1]/6^3[8:1],,,,
26,,,,
2^7[8:1]/6^3[8:1],,,,
26,,,,s
7^2[8:1]/3^6[8:1],,,,
73,,,,
7^2[8:1]/3^6[8:1],,,,
73,,,,
6pp4[8:9]*^3[8:1],,,,
6,,,,
3qq5[16:9],,,,
3,,,,
,,,,
,,,,
,,5V72[248#4:1]*V72[248#4:1],,
,,,,
(153)
1b-5[8:1]/3b,,2,,
17,,6^3[8:1],,
4,,6,2,
,1,5,,
8-4[8:1]/6,,7,1,
8,,3^6[8:1],,
5,,3,7,
,8,4,,
1-5[8:1]/3,,2,8,
1,,6^3[8:1],,
4,,6,2,
,1,5,,
8-4[8:1]/6,,7,1,
8,,3,,
2,4,3,5,
4-7[8:1],6,5,,
4b-1[8:1]/2b,,3,,
4/8pp4[8:3],,7,,
8,,6,,
5-2[8:1],,6,,
5-8[8:1]/7,,6,,
5/1qq5[8:3],,2,,
1,,3,,
4,,3,,
45,,45,,
36,,36,,
27,,27,,
18,,18,,
1,8,1,8,
1,8,1,8,
{32}1,2,3,4,5,6,7,8,1,2,3,4,5,6,7,8,{16}
1h[16:1],,5h[16:1],,2h[16:1],,6h[16:1],,
3h[16:1],,7h[16:1],,4h[16:1],,8h[16:1],,
,,,,
,,,,
,,,,
,,,,E
&inote_7=
