&title=Blue
&artist=Riran
&first=-0.09
&des=Nayutan's Remake for IcrgeApot‘s Birthday
&lv_6=13+
&inote_6=(154){1},
{1},
{1}4bxV61<5[2:3]`5bxV38>4[2:3],
{1},
{1}7bxp4V68[2:3]`2bxq5V31[2:3],
{1},
{1}2bxz6<4[2:3]/5bxh[4:7],
{1},
{1}8bxq7>5[2:3]/2bxh[4:7],
{1},
{16}6/4b,,,6,,,6,,7xV51[4:1]/5,,,,,,,,
{16}3,,,3,,,3,,2xV48[4:1]/4,,,,,,,,
{16}7,,,7,,,7,,6xV48[4:1]/8,,,,,,,,
{16}2,,,2,,,2,,3xV51[4:1]/1,,,,,,,,
{16}8h[8:1],,,8h[8:1],,,8,,7xV53[4:1]/1,,,,,,,,
{16}2h[8:1],,,2h[8:1],,,2,,3xV57[4:1]/1,,,,,,,,
{16}8h[8:1],,,8h[8:1],,,8,,7xp4[2:1]/1xh[8:11],,,,,,,,
{2},Chf[2:1],
{16}2bx^5[8:1],,,1,2,,8,,7^4[8:1],,,8,7,,1,,
{8}1V35[4:1],3V57[4:1],5V71[4:1],7,1s5[16:3],,,,
{16}7bx^4[8:1],,,8,7,,1,,2^5[8:1],,,1,2,,8,,
{8}8V64[4:1],6V42[4:1],4,1V35V71[8:3],,,,,
{16}5bx^8[8:1],,,4,5,,3,,2^5[8:1],,,1,2,,8,,
{8}8V64[4:1],6V42[4:1],4V28[4:1],2,8z4[16:3],,,,
{16}1bx^4[8:1],,,8,1,,7,,6^1[8:1],,,5,6,,4qq8[8:5],,
{1},
{8}1b/7bV58[4:1],,8-4[8:1],4,2-5-1[4:1],1,2,,
{4}7s3[4:1],3s7[4:1],7,3,
{8}2bV41[4:1],,1-5[8:1],5,7-4-8[4:1],8,7,,
{4}2z6[4:1],6z2[4:1],2,6,
{8}8bV61[4:1],,1-5[8:1],5,2-6[8:1],3,2,,
{4}8z4[4:1],4z8[4:1],8,4,
{8}2h[8:1],3h[8:1],4h[8:1],5h[8:1],6h[8:1],7h[8:1],8h[8:1],1,
{4}2bz6<4[8:5]/6b,,5x-1[12:1],5b,
{16}7b-4[8:1]/3b-7[8:1],,,,,,,,8x,1,2,3,8<4[4:1],7<3[4:1],6>2[4:1],5h[16:5],
{12}8b,,,,,,8,7,6,5/3,2,1,
{16}8b-3[8:1]/4b-8[8:1],,,,,,,,7x,5,6,,2^7V13-5[2:1],4,3,,
{24}2b/7,,,,,,6x,,,6x,,,6,,7,,8,,1/5,,4,,3,,
{16}2b-5[8:1]/6b-2[8:1],,,,,,,,1x,8,7,6,1>5[4:1],2>6[4:1],3<7[4:1],4^7[16:3],
{8}1b,,1,2,3x-1[8:1]/8x-4[8:1],,3/8,,
{16}1bx-5[8:1]/6bx-1[8:1],,,,,,,,3x,4,2,,7^2V86-4[2:1],8,6,,
{24}7b/2,,,,,,3x,,,3x,,,3,,2,,1,,8/4,,5,,6,,
{16}7b-3[8:1]/3b-8[8:1],,,,,,,,4x,5,6,7,4>8[4:1],3>7[4:1],2<6[4:1],1h[16:5],
{12}4b,,,,,,4,3,2,1/7,6,5,
{16}4b-7[8:1]/8b-4[8:1],,,,,,,,3x,1,2,,6^3V57-1[2:1],8,7,,
{24}6b/3,,,,,,2x,,,2x,,,2,,3,,4,,5/1,,8,,7,,
{16}6b-1[8:1]/2b-6[8:1],,,,,,,,5x,4,3,2,5<1[4:1],6<2[4:1],7>3[4:1],8^3[16:3],
{8}5b,,5,6,7x-5[8:1]/4x-8[8:1],,7/4,,
{16}5bx-1[8:1]/2bx-5[8:1],,,,,,,,7x,8,6,,3^6V42-8[2:1],4,2,,
{24}3b/6,,,,,,7x,,,7x,,,7,,6,,5,,4/8,,1,,2,,
{1}3bs7V13[2:7]`7bxs3V57[2:7],
{1},
{1},
{1},
{2}4>6[4:3],5x,
{2}5V71-3[4:3],4x,
{2}4V28-6[4:3],5x,
{2}5<3[4:3],4x,
{4}4bV25-1[8:5],2,5,8,
{8}5,5xV74-8[8:5],,,4,,1,,
{4}3V15-2[8:5],1,5,8,
{8}6,6xV84-7[8:5],,,4,,1,,
{4}2-5V31[8:5],5,1,6,
{8}7,7x-4V68[8:5],,,3,,2,,
{4}1v4V25[8:5],5,6,7,
{8}8,8xw4[8:3],,,,,,,
{8}1b/7bV58[4:1],,8^3[8:1],3V17-5[4:1],4-8[8:1],5,4,,
{4}4z8[4:1],8z4[4:1],4,8,
{8}2bV41[4:1],,1^6[8:1],6V82-4[4:1],5-1[8:1],4,5,,
{4}5s1[4:1],1s5[4:1],5,1,
{8}8bV61[4:1],,1^3[8:1],3V17-5[4:1],4-8[8:1],5,4,,
{4}4z8[4:1],8z4[4:1],4,8,
{8}7h[8:1],6h[8:1],5h[8:1],4h[8:1],3h[8:1],2h[8:1],1h[8:1],8,
{4}7bs3>5[8:5]/3b,,4x-8[12:1],4b,
{32}1bxv4V68b[1:1]`7bxv4V28[1:1],2x/6x,3x/5x,4x,,,,,,,,,,,,,,,,,,,,,,,,,,,,,
{1},
{1},
E
