&title=3分29秒
&artist=Hitorie
&first=0.63
&des=『死神』
&des_5=『死神』
&lv_6=14+
&inote_5=
&inote_6=(203)
{16}27,,1,1,6,,3,3,{24}8b,7b,6b,{8}1b/5b,1b,1b,
{4}2pp5[2:1]/8,8,8,8,
{8}7qq4[2:1]/3,3,,2,2,,1,,
{8}1q6>1[2:1]/7,,7,,7,7,{8},7,
{8}8,6,4,5,3,4,2,1,
{8}12,1-5[8:1]/2-5[8:1],,12,,3,2/4pp5[4:1],,
{8}1,2,3,4,37,{16}2,1,2,,{8}8,
{8}1h[4:1]/7h[4:1],,,2h[4:1]/8h[4:1],,,4h[4:1]/6h[4:1],,
{8},3h[4:1]/5h[4:1],,,4z8[8:1]/5s1[7:1],,,,
{8}2,1-5b[8:1]/3-8[8:1],48,,,{16}1,7,2,6,3,5,
{16}2,6,1>4[8:1]*<6[8:1],,,,1-5[8:1],,,,17,,8,,7,,
{8}3,2-5[8:1]/4-8b[8:1],15,,,{16}4,7,3,8,2,1,
{16}3,8,4w8[8:1],,,,4,,,,26,,4,,26,,
{8}7,8-4b[8:1]/6-1[8:1],15,,,{16}8,2,7,3,6,4,
{16}7,3,8<5[8:1]*>3[8:1],,,,8-4[8:1],,,,82,,1,,25,36,
{8}4h[4:1]/7h[4:1],,,3h[4:1]/5h[4:1],,,2h[4:1]/4h[4:1],,
{8},1h[4:1]/8h[4:1],,,{16}2h[8:1],,7,7,1h[8:1],,8,8,
{4}2h[4:3],4,4,4,
{4}6h[2:1],4,{8}4,5,3,4,
{4}2h[4:3],1,1,1,
{4}7h[2:1],6,8h[4:1],6,
{16},,2,1,3,8,4-1[8:1],7,5,6,4,,,,7,8,6,1,5-8[8:1],2,4,3,5,,,,1b,1b,1b,,,,
{4}7h[4:3],5,5,5,
{4}3h[2:1],5,{8}5,4,6,5,
{4}7h[4:3],8,8,8,
{4}2h[4:1],1,{12}3,5,4,6,3,7,
{8}1hb[4:1],,7q3[8:1],,A5/B5,,,2,
{8}2/8h[4:1],,4q8[8:1],,A2/B2,,5h[4:1],,
{16}6-2[8:1],,,7,,,8,,8-5[8:1],,,1,,,2,,
{8}3/4q8[8:1],,,5p1[8:1],,,7,,
{8}3xbqq5[2:1],,4,,A7/B7,,,8,
{8}4/8qq5[2:1],,3,,A2/B2,,1xh[4:1],,
{8}4b-8[8:1],,,3b-7[8:1],,,2b-6[8:1],,
{8},1b-5[8:1],,,8xz4b[8:1],,{16}3xb,2xb,1xb,,
{8}1b-5[8:1],,1/7>2[8:1],,4/7,4-8[8:1],,4>6[4:1]/5,
{8},24,,5-8[8:1],4,3/5,2>5[8:1],1,
{8}7/2<7[8:1],6,2,5-7[8:1],,4-8[8:1]/5,,3b-1b[8:1]/4,
{8},{24}7,6,5,4b,,,{8}2,13,{16}4,5,3,6,2,7,
{8}1>7[4:1]/8,,13,,1>7[4:1],2,13,,
{8}1-5[8:1],2,13,4qq2[8:1]*pp5b[8:1],,4,,3,
{8}2-4[8:1]/4,1,2-5[8:1],8,2-6[8:1],7,2,8h[4:1],
{8},{24}4b<2b[4:1],37,26,15,,,Cf,,,{16},,4,5,6,7,8,1,
{8}8b-4[8:1]/2,,8/2<7[8:1],,5/2,5-1[8:1],,5<3[4:1]/4,
{8},75,,4-1[8:1],5,6/4,7<4[8:1],8,
{8}2/7>2[8:1],3,7,4-2[8:1],,5-1[8:1]/4,,6b-8b[8:1]/5,
{8},{24}2,3,4,{8}5b,7,86,{16}5,4,6,3,7,2,
{8}8<2[4:1]/1,,86,,8<2[4:1],7,86,,
{8}8-4[8:1],7,86,5w1[8:1],,5,,{16}37,46,
{8}5-1[8:1]*-2[8:1],,5,,8-4[8:1],4-7[8:1],8,1h[4:1],
{8},8,8,17,{12}2,4,3,7,5,6,
{8}1bpp4[2:1],,3,,E7/D7,,,8,
{8}8qq5[2:1],,6,,D3/E3,,1,,
{8}2pp8[2:1],,4,,D1/E1,,,7,
{8}7h[8:1],5h[8:1],6h[8:1],4h[8:1],7h[8:1],5h[8:1],8,8,
{8}2>6[4:3],,,,,,,,
{8}8<1b[2:1],,,,Cf,,,,
{8}38,1-5b[8:1]/2-5b[8:1],38,1b/2b,,{16}4,6,2,8,4,6,
{16}2,8,4-2[8:1]*-8[8:1],,,,4<7[8:1],,,,1,,1,,1,,
{8}25,3-8b[8:1]/4-8b[8:1],25,3b/4b,,{16}1,7,3,5,1,7,
{16}3,5,8w4[8:1],,,,8,,,,26,,48,,26,,
{8}15,8-4b[8:1]/7-4b[8:1],61,8b/7b,,{16}5,3,7,1,5,3,
{16}7,1,5-7[8:1]*-1[8:1],,,,5>2[8:1],,,,8,,8,,8,,
{8}4h[4:1]/6h[4:1],,,3h[4:1]/5h[4:1],,,1h[4:1]/2h[4:1],,
{8},7h[8:3]/8h[8:3],,,{16},,,,1,7,5,6,
{16}5,6,{24}4b,3b,2b,1b,,,{16}7,8,5,4,7,8,5,4,7<4[8:1],,
{8},{24}3b,2,1,8,,,{8}3/8,38,38,{16}1,7,4,5,
{16}4,5,{24}3b,2b,1b,8b,,,{16}7,5,4,6,7,5,4,6,8<5[8:1],,
{8},{24}4b,3,2,1,,,{8}14,14,14,{16}8,2,4,3,
{16}4,3,{24}5b,6b,7b,8b,,,{16}2,1,4,5,2,1,4,5,2>5[8:1],,
{8},{24}6b,7,8,1,,,{8}6/1,61,61,{8}8b-4b[8:1],,
{8},7b-3b[8:1],,,6b-2b[8:1],,,5b-1b[8:1],
{2},{8},{16}1,8,27,,18,,
{16}27,,18,,{24}2b,3,4,{4}5h[4:1],{24}1b,2,3,{4}4h[4:1],
{24}8b,1,2,{4}3h[4:1],{24}7bpp4b[8:3],8,1,{4}2qq5[4:1],,
{2},E
