&title=relations (M@STER VERSION)
&artist=長谷川明子&若林直美
&first=0
&des=田中臣&铃木住
&lv_5=13
&inote_5=(142)
{4},,,
{64},,,
{8}4h[8:3]/5,,,2h[8:3],,,8h[8:3],,,6h[8:3],,,4z8[24:11],,,5-8[12:1],
,,,24,35,46,5/7<1[4:6],,,,,,
{12}8b,,7,,6,,7b,,6,,5,,4,4z8[4:2],,
{8},,,2,3,4-1[8:2],,7,6,5^7[8:1],,,4,5^2[8:1],,5/7h[8:3],,,
{4}1b-4[12:1],6b-2[12:1],8b-5[12:1]*-3[12:1],8b,
{8}1-5[8:1],,7-4[8:1]/1,,7/2-6[8:1],,8/2,
{8}7>3[16:5],,2>6[16:5],,5<8[16:4],,2,2-5[8:1],,
{8}2/8-4[8:1],,2-6[8:1]/8,,2/7-4[8:1],,8/7,
{8}1<5[16:5],,6>2[16:5],,3^8[4:1],,7,7-4[8:1],,
{8}7/1-5[8:1],,1^4[8:1]/4^7[8:1],,1/4-8[8:1],,4/5,
{8}6<2[16:5],,1>5[16:5],,4^7[4:1],,2,2-5[8:1],,
{8}2/8-4[8:1],,8^5[8:1]/5^2[8:1],,8/5-1[8:1],,5/4,
{8}3>7[16:5],,8<4[16:5],,5^2[4:1],,7,7V51[8:5],,
{8}3h[4:1],,,1pp4[8:5]*qq6[8:5],,,,,,,,,1b/5b,3b/7b,,,
{8}1-5[8:1],,,8,8<3[4:4],,,,,,,,2,,1,,8-4[8:1],,,1,1<3[1:1],,,,,,,,
{8}8,7,6,5h[8:4],,,,,,4<7[4:1],3,2h[8:3],,,,,
{8}8<4[16:5],,5>1[16:5],,2<4[2:1],,,,,3,2,1>6[2:1],6h[8:1],,7h[8:1],,8h[8:1],,
{8}1-5[8:1],8,7<3[4:1],,2,1,8>5[4:3],,7,,,,7,,7h[8:1],8h[8:1],1^7[8:1],2h[8:1],1,,,
{8}4>5[8:5],4,,8,,,,8,,42,3/5>1[8:3],46,7h[8:6]/5,,,,,,8-4[4:1],1,2h[8:5],,,,,
{8}8<4[4:1],,4>8[4:1],,8p5[8:5],,,,,2,3,4h[8:3],,,8h[2:1],,
{16}1,2,3,4,5,6,7,8,
{8}1/6qq3[4:1],,,,2qq7[4:1],,,,5-2[8:1],,4-7[8:1],,
{8}1V35[8:8],1V75[8:7],,,,,,,,,,,
{8}2b-6[8:1],,1b-5[8:1],,8b-4[8:1],,7b,6,
{8}3/5-7[8:1],,,2-4[8:1],2-6[8:1],,,,1-6[8:1],,7-2[8:1],,
{8}3^6[8:8],3-6[8:7],,,,,,,,,,,
{8}4b-1[8:1],,4b-7[8:1],,4b,,4,3,
{8}4/2-6[8:1],,7,8z4[4:1],8,,,,4h[64:1]/6h[64:1],,3h[64:1]/7h[64:1],,
{8}28,2V48[1:1]/8V62[1:1],,,,,,,,,,,
{8}1h[8:1],,2h[8:1]/8h[8:1],,3h[8:1]/7h[8:1],,
{8}4^7[8:1],3,2h[64:1]/4^1[8:1],,6h[64:1]/4-7[8:1],,2/4,3>7[4:2],,5h[4:2],,,,,,,
2-4[8:1]/5-1[8:1],,5/2-7[8:1],,2,,4,4w8[4:3],,,,,,,,,,,
{4}1qq5[4:2]*v4[4:2],,,,
2b/3b,,
{8},7b/6b,
{8},7,1-5[8:1],6,1,7-4[8:1],4-8[8:1],7,,1,2,3-5[8:1]/8-4[8:1],,3/8V62[8:2]*V26[8:2],,,,,
{8}7/2-4[8:1],1,2-8[8:1]/7-5[8:1],8,7/2V48[4:1],,8w4[4:3],,,,,,,,,,,
{16}2-5[8:1],,8,,2,,7V15[4:1],,1,1,,,2,,3,,4,,3v1[4:1]/7v5[4:1],,26,,37,,,,,,,,,,
{8}2-4[8:1],4,2,7V51[4:1],5,2z6[8:5],,,,,,,,,4,
{8}8-4[8:1],3,8,2-5[8:1],5-1[8:1],2,,8,7,6-4[8:1]/1-5[8:1],,6/1V37[8:2]*V73[8:2],,,,,
{8}2/7-4[8:1],8,7-1[8:1]/2-5[8:1],1,2/7V53[4:1],,3V17[4:2]*-7[4:2],,,,,,,,
{8}2p5[4:1],,5>7[2:1],,,7,7q4[4:1],,4q1[4:1],,1>6[2:1],,,6,6q3[4:1],,
{8}3<7[4:2]*>7[4:2],,,,,,,,36,,8b/7b,,1b/2b,,6b/7b,,3b/2b,,
{8}1<4[4:1]/7,,13,,8-4[8:1],,1,1-5[8:1],,3-8[8:1],,6,,15,26,,
5-1[8:1]/7,,53,,84,7,3,1-3[8:1]*-7[8:1],,1,,5-1[8:1]/1-5[8:1],,,,,
{8}8>5[4:1]/2,,86,,1-5[8:1],,8,8-4[8:1],,6-1[8:1],,3,,84,73,,
4-8[8:1]/2,,46,,15,2,6,8,,1-5[8:1]/6-1[8:1],,16,,8,2,7,6pp4[4:3]/3qq5[4:3],,,,,,,,,,,,1b/5b,3b/7b,,,
{8}3-8[8:1],,,5-2[4:1],5,,,,,,,,8-5[8:1],,8pp7[4:1],,,,,,6/3h[4:4],,4,,6,,4,,
8-5[4:3],8,1-4[4:2],1,,,,,,2-6[8:3],1-5[4:1],,,,,,
4<8[4:1],,8>8[4:2],,6h[4:3],,,,,1,2,3<1[8:3],,,,,6b-2[16:1],,,,
{16}2,4,3,,7,5,6,,3,5,3,,6,4,6,,1,3,2,,8,6,7,,
2-6[8:1],,2,,8-4[8:1],,8,,3V14[8:1]*pp4[8:1],,,,,,,,
7-3[8:1],,7,,1-5[8:1],,1,,6V85[8:1]*qq5[8:1],,,,,,,,
2-6[8:1],,6-2[8:1],,2<5[4:1],,8,,,,,,,,,,,,
7-3[8:1],,3-7[8:1],,7>4[4:1],,,,,,,,,,
2,4,3,,7,5,6,,2,4,3,5,4,6,5,7,1,8,2,7,3,6,4,5,
{32}1,2,3,4,5,6,7,8,1,2,3,4,5,6,7,8,
{4}1b,
{8}2,6,2pp6[4:1],,,8,8-4[8:1],,,3-7[8:1],7-2[8:1],,,,5pp5[4:1],4,5>5[4:3],
3h[8:7],,,,,,,,,
2b-6[8:1],,1b-5[8:1],,8b-4[8:1],,7b,,
3pp6[4:1],,,8p7[4:1],8,,,2>6[8:1],6<2[8:1],,,,5-8[8:1],4,5>5[4:3],
,7h[4:3],,,,,,,,
4b-1[8:1],,4b-7[8:1],,4bw8[8:1],,4b,,
5qq5[4:1],,5pp5[4:1],,,,,,
3-5[8:1],,7-1[8:1],,3-1[8:1],3,5-7[8:1],,1V37[4:1],,7V51[4:1],,1V37[4:1],,
7<1[4:2],,,,,,,,
{16}4,5,4,5,3-7[8:1]/6-2[8:1],,,,36,,,,1pp4[4:3]/8qq5[4:3],,18,,,,,,
{8},,,,,,7-3[8:1],,7b,,2-6[8:1],,2b,8-4[8:9],
{4},,,,,1s5[4:2],,,,
2b/3b,,
{8},7b/6b,
{8},2-7[8:1],7-2[8:1],2-5[8:1],5-2[8:1],,,
7-4[8:1],,1-4[8:1],1-6[8:1],1,,,3-7[8:1]/7-3[8:1],,3b/7b,,
{8}2<7[8:1],7>2[8:1],,,
6-2[8:1],,3<2[4:3],,6h[4:2],,,,,,7b,,
{16}5h[4:2],,4,,3,,2,,1h[4:2],,8,8,,,5,,
4h[4:2],,3,,2,,1,,8h[16:3],,7,7,,,,,
{8},48,37,26,15,26,3>8[8:1]/7<4[8:1],8pp3[4:2]/4pp7[4:2],,,,,,,
{8},7-2[8:1],2-7[8:1],7-4[8:1],4-7[8:1],,,
2-5[8:1],,8-5[8:1],8-3[8:1],8,,,6-2[8:1]/2-6[8:1],,6b/2b,,
3-8[8:1],7-4[8:1],3<7[8:1],7>2[8:1],,,,,
8-5[4:2],,,,,,3>1[8:1],,
{32}7b,6,5,,,,,,,,,,7,,,,73,62,51,,,,,,6<1[8:1],,,,,,,,
2b,3,4,,,,,,,,,,2,,,,26,37,48,,,,,,
{8}2,,
{16}2,4,3,,7,5,6,,2,5,3,,7,4,6,,
2,4,3,5,4,6,5,7,1,8,2,7,{32}2,3,4,5,6,7,8,1,
{8}2V48[8:3],,,8V26[8:3],,,6V84[8:3],,5h[8:3],,,,,31,28,17,
{8}8^3[8:1]/6,7,6,5<8[8:1],,4,3,2,{16}34,,,45,,,56,,
{8}8h[4:1],,1h[4:1],,2,35,1,35,8,35,7,4/5h[4:1],,6h[4:1],,
{16}8h[8:1],,2h[16:3],,,3h[16:3],,,4h[8:1],,6h[8:4],,
{16}5h[8:3],,,,,,,,8z4[8:1],,,,,,,,,,
{24}1,2,3,4,5,6,1,8,7,6,5,4,3,2,1,8,7,6,
2b,3,4,5,8,7,6,5,4,3,2,1,
3b,4,5,1,8,7,6,1,2,3,4,5,
1,8,7,6,5,4,3,2,1,8,7,6,
{24}3-8[16:1],4,3,4,3,4,
{4}3,
{8}7,3,6,3,5,3,4,3,1,8,2,8,3,8,4,8,6,7,1,7,2,7,3,7,1,6,2,6,3,6,4,6,
3h[4:2],5,7,5,4h[4:2],3,1,3,5h[4:2],6,8,6,6h[4:2],5,3,5,3h[4:4],5,8,5,7,5,6,5,8h[4:4],1,2,1,3,1,4,,,
{8}2-7[8:1],7-2[8:1],2-5[8:1],5>8[4:1],6,7,8,,
{8}5-7[8:1],5-3[8:1],,,,1-5[8:1]/5-1[8:1],,1b/5b,,
{8}2-8[8:1],8-4[8:1],4-6[8:1],,,,4>6[4:1],5,6>8[8:3],,,,,,
{8}6q3[4:1],,6/3<1[2:1],,,2,2,,
3p6[4:1],,3/6>8[2:1],,,7,7,,
{8}5pp7[4:2]*qq3[4:2],,,,,,,,81,{16}27,2z6[4:1]/7s3[4:1],{8},,,,,,
{8}2p5[4:1],,2/5>7[2:1],,,6,6,,6p1[4:1],,6/1<6[4:1],,,3,
{16}3,2,1,8,7,6,5,4,
{8}7h[4:3]/3bqq3[4:1],,3pp3[4:1],,,,,,
{8}7-2[4:1],,8,,1-4[4:1],,2,,3-6[4:1],,4,,5-8[16:3],,6>7[4:5],,
{4}2h[4:5],,,,,,8-4[8:1]/4-8[8:1],4b/8b,
{8}1<4[4:1]/7,,13,,8-4[8:1],,1,1-5[8:1],,3-8[8:1],,6,,15,26,,
{8}2/8-4[8:1],,8^5[8:1]/5^2[8:1],,8/5-1[8:1],,5/4,
{8}3>7[16:5],,8<4[16:5],,5^2[4:1],,
7,6,5,4h[8:5],,,,,8h[8:2],,7h[8:1],6-2[8:1],,,,4b/8b,2b/6b,,,
{16}25,,3,,4,,4,5,,67,,1,8,,27,,74,,6,,5,,5,4,,32,,8,1-5[16:1],,,,,,E
