&title=raputa
&artist=sasakure.UK / TJ.hangneil
&first=0.035
&des=NO Furry
&lv_5=15
&inote_5=(230){4},,,,,,,,{8}1,
8,{4}1,{8}7,7h[2:1],,5h[8:7],
,,,6,{2}6h[2:1],
{8}4,5,{4}4,{8}2,2h[2:1],4,4h[8:3],
{4},{8}3h[8:3],4,,5,,3/6h[8:31],
4h,4,,5h,{4}5,{8}7h,7,
,2q5[8:11],{4}2,{2},,,{1}5h[4:3],
{4}4b/5b,{16}2/7,{8},{16}3,{8}4,1,1h[4:1],8,
{4}6,{16}7/5,{8},{16}5,{8}6,2,4,3,
3/6,5,5,{16}2h,4h,{8}3h,5,{4}4,
3b/6b,{16}3/5,4,5,6,7,8,1,2,{4}3/7,
6/4h,{8}2h,5/2h,,6h,6h,5/7h,
4h,4h,{4}4h/6-8[12:1],3-5[12:1],{8}6,6,
7,4h,,2,2,5h,{4}1,
{8}1h[8:1]/8h[4:1],{4},{16}1,8,{8},8/1h[8:1],,8,
{4}2b/7b,{16}4/5,{8},{16}6,{8}5,7,7h[4:1],1,
{4}3,{16}3/5,{8},{16}2,{8}4,3,6,6,
5/7,3,5,{16}2h,4h,{8}2h,6,{4}7/4,
3/6,{16}3/5,4,5,6,7,8,1,2,{4}3/7,
7/5h,{8}1h,4/2h,,7h,7h,8/6h,
1h,1h,{4}1h/6-4[12:1],2-4[12:1],{8}7,7,
8b,5,5h,7b,,6h,{4}4b,
{8}3/4,3/4,2/5,2/5,6/1,6/1,7/8-5[8:1],8/7-2[8:17],
{1}8b,
,6s2[4:7],
{2},{4}3,3z7[4:7],
{1}3,
,{8}6h[8:3],
{4},{8}5h[8:3],{4},4h[8:3],
{8},3,{4},{12}4,5,4,5,4,5,
{4}3b,{8}6,4/6,,3h[8:1],5h[8:1],2,
{4}4/6h[4:1],{8}3,4/6h[4:1],,4,{4}3/5,
{8}2h[8:1],7h[8:1],1h[8:1],8h[4:1],,2,3-1[8:1],3,
{4}3b/4,{8}4,5b/4-8[8:1],,4,{4}6b,
{8}7,7-5[8:1],5,5,,3h[4:1],{4}8,
{16}1,4,1,4,{8}2v1[16:3],3v4[8:1],{2},{4}5/8h[8:1],
{8}7,7/4h,,2/5h,,3/6h[8:1],
{12}4,5,6,3,4,5,2,3,4,2,3,4,
{8}2<8[12:1],4<6[12:1],2,4,,7,8/6,2-6[8:1],
5,2,4q8[8:1],3,4,2-5[8:1],1h[2:1],2,
,,,1/5h[4:1],,{16}2,3,4,5,6,7,
3/8,4,5,6,7,8/4,1/5,2/6,{8}3/7,4-1[8:1]/8-5[8:1],,8/4,
{4},{8}2/6,3/5,,4/6-1[8:1],,6b/5b,
,{16}6,7,8,1,2,3,7/4,8,1,2,3,4/8,5/1,6/2,
{8}7/3,4-1[8:1]/8-5[8:1],,4/8,,7-3[8:1],2,7,
1,1,2/4,4/2,3/5,3/5,4/6,4/6,
{4}7-5[8:1],{8}4/7,3-1[8:1],,3/5,{4}4-8[8:1],
{8}4/2,1,1,1,{16}1,8,2,8,{4}3b<5[8:1],
{8}3/8,1<7[8:1],,1/3,{4}2-6[8:1],{8}2/8,7,
7,7,{16}7,8,6,8,{4}5b-7[8:1],{8}5/8,1-3[8:1],
,1/4,{4}4-8[8:1],{8}4/3,2,2,2,
{16}2,1,3,1,{4}4b>2[8:1],{8}4/7,8<6[8:1],,4/8,
{4}5-1[8:1],{8}5/6,7,7,7,{16}7,8,6,8,
{4}5b-7[8:1],{8}5/2,1-3[8:1],,1/5,{4}4-8[8:1],
{8}4/3,2,2,2,{16}2,1,3,1,{4}4b-8[8:1],
{8}4/6,5<7[8:1],,5/2,{4}1>3[8:1],{8}1/5,5,
4,4,{16}3,4,3,4,(188){8}3h[16:1],3h[16:1],3h[16:1],3h[16:1],
3h[16:1],3h[16:1],2h[16:1]/4h[16:1],4h[16:1]/2h[16:1],2h[16:1]/4h[16:1],2h[16:1]/4h[16:1],2h[16:1]/4h[16:1],2h[16:1]/4h[16:1],
1h[16:1]/5h[16:1],5h[16:1]/1h[16:1],5h[16:1]/1h[16:1],5h[16:1]/1h[16:1],5h[16:1]/1h[16:1],5h[16:1]/1h[16:1],2h[16:1]/6h[16:1],2h[16:1]/6h[16:1],
2h[16:1]/6h[16:1],4h[16:1]/8h[16:1],4h[16:1]/8h[16:1],{24}8p2[6.3298##0.6915]/4p6[6.3298##0.7447],,4h[#6.212769]/8h[#6.212769],{8},(230),{1},,,,,,(245){4},
,(230)8h[8:41],,,,,,,,2q5[2:3],
,,,,,,,4,
{8},3,{4},{8}2,
{4},{8}3q6[8:17],{4},,,,,,,,,,,6h[4:1],
5h[4:1],4h[4:1],
{8}3,5,4,6,6,5,{4}6h[4:1],
4h[4:1],5,6h[4:1],5h[4:1],
{8}6,5,6,4,4,5,{4}3h[4:1],
5h[4:1],{8}4h,6,6,2h,7,7,
1h,8,8,3h,6,6,2h[8:1],4,
4h[8:1],3,4,5,6,7,8,1,
2,3h[8:7],{4}2bp4[8:3],{2},{4}8-4[16:1],
8b,{8}5/3,2-5[8:1],,2/6,
{4}7,1/8v3[8:1],{8}3/8,2-6[8:1],,2/4,
{4}5,5/7-4[8:1],{8}7/3,2,,1/7,
{4}6v1[8:1],{8}5,4,3-7[8:1],2,{4}1-4[8:1]*-6[8:1],
1,5/3-6[8:1],{8}3/6,7-4[8:1],,7/4,
{4}3-5[8:1],{8}3/7,8-4[8:1],,8,1,2,
{4}3<6[8:1],{8}6b,{16}1,2,3,4,5,6,7,8,1,2,
{4}3<6[8:1],{8}6b,{16}1,2,3,4,5,6,7,8,1,2,
{4}3-8[8:1],{8}3/4,{16}7,6,{8}5,8v3[8:1],5,8,
{4}6-1[8:1],{8}5,5,4v7[8:1],6,4,6,
5b-1[8:1],1,5,{16}2,3,{8}4,1,1v6[8:1],4,
{4}1,{8}5-8[8:1],7,5,6,5,5,
4,4,{4}5/3-5[8:1],{8}3/6,7-4[8:1],,7/2,
{4}1-5[8:1],{8}1/7,6-3[8:1],,6/3,{4}2,
1/2,{16}3,4,3,4,{8}3,{16}6,5,6,5,{8}6,
{16}2,3,2,3,{12}1h,4,4,1h,5,5,1h,6,6,
1h,7,7,8,{24},{8}8,6/1h,7h[8:1],2,{16}2h,5,
{8}3,5,6/2h,3,4,5/1h,{16}8,8,7,7,
{24}1,2,3,6,5,4,{8}1,1,2/5h,7h[8:1],1,{16}1h,8,
{8}2,6,3/5h,4,5,2/6h,{16}7,7,1,1,
{24}7,6,5,2,3,4,{8}7/5,{16}6,5,{8}6,4/7,{16}5,6,{8}5,
7/4,{16}6,5,{8}6,7/4,{16}2,1,{8}2,{16}8,1,8,7,
6,5,{8}4,2b/4b,{16}7,8,{8}7,1/7,{16}6,5,{8}6,
4,3/5,{16}3,4,3,4,2,5,3,4,{8}2h[8:1],4h[8:1],
3,5,6/4,4/6h[8:3],5,7,{16}8,1,2,3,
7,8,1,2,{8}5-2[8:1],1,5,7h[4:1],{16}1,2,3,4,
8,1,2,3,{8}1,1h[4:1],4,4h[4:1],{16}8,7,6,5,
1,8,7,6,{8}5-8[8:1],1,5,1h[4:1],{16}7,6,5,4,
1,2,3,4,{8}5/8,{16}7,5,{8}6,4/7,{16}2,4,{8}3,
5/2,{16}7,4,{8}6,8/3,{16}2,5,{8}3,{16}1/6,5,2,3,
6,5,2,3,6,4,6,4,{8}7/5,5/7,{16}6h,4h,{8}8h,
{16}4,8,4,5,7,6,3,4,6,5,2,3,5,4,1,2,
4,3,{24}8,1<6[1.1304##0.1957],2-6[2.1304##0.1957],{4}8h[8:29]/3<6[3.1304##0.1957],,,,1,
,,,2,
,,,3,
{8},,,5,
{4}7/5,6/4h,{8}5/3h,3h,,1/8h,
8h,7h,2-4[8:1],1,{4}1-5[8:1],7h,
{8}6h,6h,{4}7/5h[4:1],{8}7,5/6h[4:1],,4,
5/4,3,{4}5h[4:1],{8}4,5/4h[8:1],,4h[4:1]/5h[4:1],
{4},{8}3/6,4,5,6h[8:1],7,{16}5,6,
{8}5,8,{16}5,6,5,6,{8}4,4,5h[8:1],4,
6,5,7/4,5,6,4,{16}5,3,{8}5,
3,5,2b/6h,3,4,1b/5h,8,2b/7h,
3,4/7,4/7,{16}6,5,{8}6,4/7,{16}5,6,{8}5,
4/7,{16}6,5,{8}6,4/7,{16}5,6,{8}5,{16}7,5,7,5,
6,4,6,4,{8}5h[8:1],3h[8:1],6h[8:1],4h[8:1],{16}7,5,{8}7,
4h[8:1],6h[8:1],5b,5b,6b,6b,7b/5b,7b/5b,
7b/5b,5b/7b,{4}5-3[8:1],{8}6/5,7-5[8:1],,7/3,
{4}1-5[8:1],{8}1/5,7,3,3,{24}8,7,6,5/8,1,2,
(240){4}3/5-7[8:1],{8}5/4,2-4[8:1],,2/4,{4}8-4[8:1],
{8}8/4,2,6,6,{24}8,1,2,3/8,7,6,(245){4}5/3-5[8:1],
{8}3/6,7-5[8:1],,7/3,{4}1-5[8:1],{8}1/5,7,
3,3,{24}1,8,7,6/1,2,3,(250){4}4/6-4[8:1],{8}6/3,1-3[8:1],
,1/5,{4}7-3[8:1],{8}7/4,2,5,5,
{24}8,1,2,3/8,7,6,(260){4}5/3-5[8:1],{8}3/5,7-1[8:1],,7/6,
{4}2-5[8:1],{8}2/6,7,4,4,{24}1,8,7,6/1,2,3,
(270){4}4/6-4[8:1],{8}6/4,3-1[8:1],,3/4,{4}7-4[8:1],
{8}7/3,1,5,5,{4}5h[8:1],(280){16}8,1,2,3,
8,1,2,3,8,1,2,3,4,5,6,7,(300)8/5,1/6,2/7,3/8,
5,6,7,8,5,6,7,8,1,2,3,4,(320)5/2,3/6,4/7,5/8,
2,3,4,5,2,3,4,5,6,7,8,1,(339)2/5,3/6,4/7,5/8,
1,2,3,4,1,2,3,4,1,2,3,4,{4}5-2[4:29]/1-6[4:29],
,,,3?-6[4:25]/7?-2[4:25],
,,,4?-2[4:21]*-6[4:21],
,,,8?-2[4:17]*-6[4:17],
E
