&title=I Wanna
&artist=静香(CV:长谷川育美)
&first=0.028
&des=02
&des_3=何意味
&des_4=何意味
&des_5=何意味
&des_6=何意味
&des_7=何意味
&lv_5=14
&inote_5=(200){4},{8},,,,,,4/5,
6,4/5,3,7/2,6/3,,3,
,7/8,1,7/8,5,B3/B2,{4}B2/B3,
{8}5/4,3,5/4,6,2/7,3/6,,6,
,2/1,8,2/1,4,B7/E8,{4}B7/E8,
{8}4-6[8:1],4,2-4[8:1],2,8-2[8:1],8,,6b<2[4:1],
,2V46[4:1],,6,2x,3x,{4}3x,
{8}1/5h[8:3],2,3>6[4:1],4,Cfh[8:3],{32},,,,,,,,7b,8b,1b,2b,
,,,,{16}6,5,{8}7,{16}3,4,{8}2,{16}6,5,{8}7,3,
{4}1b/8b<5[8:1],{8}3-8b[8:1],2,{16}3/7-4b[16:1],,,7,,,{8}2-7[48:5],
,5,,4,{4}4<7[8:1],3/4,
8-4[8:1],{8}8b,5,{16}7,,,4,,,{8}2-5[8:1]/6-1[8:1],
,6/2,{16},,,,4/8,3/7,2/6,1/5,8,7,6,5,
{4}8-5[8:1]/4v1[8:1],8b/4b,{16}2/6,,,3/7,,,{8}4V28[8:1]/8V64[8:1],
,,,2,6,2,{4}7/3x,
5/1-5[8:1],{8}1b,4,{16}6,,,5,,,{8}3,
{16}2,6,3,7,4,8,5,1,4,8,3,7,2,6,1,5,
{4}2bp7[400:299],2,2,2,
2b<3[4:3],2,2,2,
2bq5[4:3],2,2,2,
2p4[4:3],2,2,2,
2b<6[4:3],2,2,2,
2qq6[4:3],2,2,2,
2bp7<3[2:3],2,2,2,
2,2,2,2,
{8}6v1[8:1],6,{4}4x,{8}3v8[8:1],3,{4}5x,
{8}6<1[8:1],6,{4}4b,3>8[8:1],5,
{8}6v1[8:1],6,{4}4,3>4[2:1],3,
6x,8x,{16}E3,E4,E5,E6,{4}E7,
{8}7xv4[8:1],7x,{4}8,2<6[4:1],6>2[4:1],
2V86[4:1],6V42[4:1],2,6x,
{8}7-5[8:1],7,2-4[8:1],2,8b-4b[8:1],8,1b-5b[8:1],1,
7x,6x,2,3,{16}5,4,5,4,{4}5,
{8}5/4,6,2,3,{16}7/4h[16:3],6,{8}5h[4:1],3,2,
{16}5/2h[4:1],6,7,8,{8}1,2,{16}1/2h[8:1],8,7,6,{4}4h[8:1]/5h[8:1],
{8}3/5,4,7,6,{16}2/5h[16:3],3,{8}4h[4:1],6,7,
{16}4/7h[4:1],3,2,1,{8}8,7,{16}8/7,1,2,3,{4}5h[8:1]/4h[8:1],
{8}5/4,6,2/7,3,{16}7/4h[16:3],6,{8}5h[4:1],3,2,
{16}5/2h[4:1],6,7,8,{8}1,2,{16}1/2h[8:1],8,7,6,{8}5/4,4x/5xV71[4:1],
,2,3,4,4h[8:1],{16}E8,E7,{8}E6,3,
,4/7,{24},,{6}2/5,3/6,{12},{4}5<8[8:1],
5/2-5[8:1],2/6V85-1[8:3],{8}3,3,{4}3-8[8:1],
3/4,6h[8:1]/5h[8:1],8h[8:1]/7h[8:1],4-8[8:1]/5-1[8:1],
4/5,6/3,{8}4/2,3,5/7,6,
{4}8-4[8:1]/1-3[8:1],8/1,1-5[8:1]/8-6[8:1],1/8,
2<7q3[2:1],6,4,5,
7>2p6[2:1],3,5,4,
5/3-1[8:1],3/4,4/6-8[8:1],6/5,
{16}2,4,{8}3,{16}7,5,{8}6,{16}4,5,4,5,{4}1b,
2-5[8:1]/6-1[8:1],2/6,{16}2bx,4,3,7bx,5,6,{8}1x,
{4}7x-4[8:1]/3x-8[8:1],7/3,{16}6bx,5,7,3bx,4,2,{8}6x,
{4}3x-1[8:1]/7x-5[8:1],7x/3x,{8}6x/2x,3x,4x/7x,6x,
{24}1bx,2x,3x,4x,,,7bx,6x,5x,4x,,,2bx,3x,4x,5x,,,8bx,7x,6x,5x,,,{4}3h[4:1],
{16}7,6,5,4,1,2,3,4,6/5x,7,8,1,
4,3,2,1,4,5,6,7x,{2}1-5[8:1]/8x-4[8:1],
{16}3,4,3,4,{4}2,{16}6,5,6,5,{4}7,
{16}1,2,3,4,8,7,6,5,2,7,2,7,3,6,3,6,
4,5,2,7,3,6,1,8,{24}2b,3,4,7b,6,5,1b,2,3,8b,7,6,
{4}Cf,2q5V71>4[8:9],{2}C,
7b,6,
7-4V68>4[16:17],B2/B3,
3x,1x>4[8:3],
{4}5,6pp2<5[4:5],{2}4,
{4}3x,3xqq7[4:3],,,4x,
5x,6,7<4[8:3],
3,2,1>4[4:1],{8}7,6,
{4}5-8[16:5],4x,3x,{8}2,2,
7,6,1,2,{4}5xh[4:1],{8}3-5[8:1],5-2[8:1],
7,8-5[8:1],,8-3[8:1],,8,,6,
2x,3x,8x,7x,{4}4xh[4:1],{8}6-4[8:1],4-8[8:1],
3,1>4[8:1],,1<5[8:1]*p5[8:1],,1,,3,
{4}3qq8[2:1],{8}5,6,{4}7-4[8:1],7>5[8:5],
5xh[8:1],6-1[8:1],6,6pp1[2:1],
3,2-5[8:1],2<4[8:5],3,
,3-8[8:1],3x,5x,
{8}6/4,7,5/2,3,{4}8x/4x,{8}6/4,7,
5/2,3,8x/4x,6,5/3,1,{4}6/4,
{8}3/5,2,4/7,6,{4}1x/5x,{8}3/5,2,
4/7,6,1x/5x,3,{16}4/6,7,8,1,4,3,2,1,
{4}8/5,{8}7-5[8:1],7,2-5[8:1],2,8-4[8:1],8,
{4}3,{8}2-5[8:1],2,7-4[8:1],7,1-5[8:1],1,
{4}6,{8}7-4[8:1],7,7x/3-8[8:1],3,3x/6-2[8:1],6,
6x/1-4[8:1],1x,1x/5<8[8:1],5,{16}1/5x,2,3,4,5/1,8,7,6,
{2}5-8[8:1]/1-4[8:1],2V48[16:3]/7V51[16:3],
{4}6-1-4b[8:3],3-7b[8:1],,,6V84[4:1],
4-2[8:1],,7,
1/5,6/3,8/4,6/3,
2V48[4:1],8-6[8:1],,5,
3-8-5b[8:3],6-2b[8:1],{24},,,,,,,,,,,,8/4,
7/3,6/2,5h[4:1]/1h[4:1],,,,,,,,,{8}5/1,7h[4:1]/3h[4:1],,,6/2,
2/6,7/3,7/3,{16}6,2,6,2,7,3,7,3,
{1}5bpp6[4:3],
4bqq3[4:3],
{2}5bv8-6[4:1],4bv1-3[4:1],
{8}8b,8b,7b/1b,7b/1b,{16}2b,6b,2b,6b,3b,5b,3b,5b,
{4}4bp8>3[2:1],5,7,6,
5bq1<6[2:1],2,3,4,
{24}1b/8b,7/2,6/3,5xh[32:21]/4xh[32:21],{4},,,{16},{48},{16}1b,
8,1b,8,1b,8,1b,8,{32}1b,2,3,4,5,6,7,8,1b,2,3,4,5,6,7,8,
{4}1>4[8:1]/5<8[8:1],5b/1b,{16}1b,4,3,8b,5,6,1,8,
{4}6<8[8:1]/3v8[8:1],3b>1[8:1]/6bv1[8:1],6pp4[8:3]/3qq5[8:3],6b/3b,
,1-3[8:1],{8}5x/1-5[16:1],6,{4}5x<8[16:1]/1x>4[16:1],
5xp1[16:1]/1xp5[16:1],5x<8[16:1]/1x>4[16:1],5x-1[16:1]/1x-5[16:1],5b/1bx,
{16}3,5x,4x,4x,3,5,2,6,3,7,2,6,1,5,8,4,
1bx,8,7,6,5/1bx,4/8,3/7,2/6,1,8,7,6,5/1<1<5[8:5],4/8<1<5[16:9],3/7<6>5>4>3>2<1<8<7<6>5>4>3>2<1b[4:3],2/6>5>4>3>2<1<8<7<6>5>4>3>2<1b[16:11],
{1}1,
{16}2,4,3,5,4,6,5,7,8,6,1,7,2,8,3,1,
4,5,4,5,3,6,3,6,1b,8b,2b,7b,4b,5b,3bqq5<6<7>8>1>2>3<4b[8:13],6bpp4>3>2<1<8<7<6>5[16:25],
{1}Cf,
{16},,,,,,,,,,,,,,,,E3,
B3
||这是一个标记~
,B4,E5,E1,B8,B7,E7,E1,B1,B2,E3,E7,B6,B5,E5,
{4}Cf,{8}4/7-1[8:1],6,{16}7b/3-5[16:1],,,3b/6b-2[16:1],,,{8}6b/3>1[8:1],
,3/5bV74[4:1],,4-8-3[4:1],3-1b[8:1],2,{4}3,
6,{8}6/2-8[8:1],3,{16}2b/6-4[16:1],,,6b/3b-7[16:1],,,{8}3b/6<1[8:1],
,6,,3,{16}8,7,6,5,1,2,3,4,
{4}7-4[8:1],{8}7/2-8[8:1],3,{16}2b/6-4[16:1],,,6b/3b-7[16:1],,,{8}3b/6<8[8:1],
,6/4bV25[4:1],,5-1-6[4:1],6-8b[8:1],7,{4}6,
{8}7-4[8:1],7,7/3-8[8:1],3,3/6-1[8:1],6,6/2>5[8:1],2,
{16}6/2bx,7,8,1,6,7,8,1,6/2-6[8:1],7/3-7[8:1],8/4-8[8:1],1/5-1[32:3],{4}2/6>3<4qq2<6q2b[4:7],
{8},,,,,,,,,,,,,,,,3<2[8:11],
,,E8,,,{4}E1,
{8},E2,,,,,{4}7-5>4-8>1-3[8:7],
,,,,{1}2x-4<5-1<8-6[8:7],
{4}D4,D5,D6,C/B7/E7/B6/B5/E5/B4/B3/E3/B2,
E
