&title=雷切-RAIKIRI-[DX]
&artist=kanone
&first=0
&des=Luxizhel vs 心白-HW
&des_5=Luxizhel vs 心白-HW
&lv_5=14
&inote_5=(165){4},,,,,Ch[4:3],
{8},,,,1s5b[2:1],
1-5[8:3],,,,,,,8<3[2:1],
8,{16}1,1,,2h[16:3],,,,,{4}2,
{8}3pp7[2:1],3,{16}2,2,,1h[16:3],,,,,{4}1,
{8}2/6,{16}1,7,1,7,8-3[8:1],8,{2}8-5[8:1],
{16}3,5,3,5,4-1[8:1],4,4-7[8:1],4,,,,,,,,,{8}1>6[2:1],
1,{16}8,8,,7h[16:3],,,,,{4}7,
{8}6qq2[2:1],6,{16}7,7,,8h[16:3],,,,,{4}8,
{16}2,2/5,,7,{8}4/7,{16}1,1/5,,8,{8}8/4,{16}4/8,7/3,6/2,5/1,
{2}4-7[8:1]/8-3[8:1],{16}4/8,3/7,2/6,5/1,,,,,{8}8/2-5[8:1],
{16}3,4,{8}2,6,7-4[8:1],{16}6,5,{8}7,3,
2-6[8:1],{16}1,8,{8}2,7,8-4[8:1],{16}7,5,{8}8,1,
2-6[8:1],2,1-5[8:1],1,8-4[8:1],8,7-3[8:1],7,
6-2[8:1],6,5-1[8:1],5,{16}4bw8[12:1],,,4b,,,,,{8}1-5[8:1],
8,1>3[8:1],7-4[8:1],1q5b[8:1],7,{4}1,
{12}7/3,7/3,7/3,6/2,6/2,6/2,5/1,5/1,5/1,{96}1xp5[8:1]/5xp1[8:1],,,6x/2x,,,{32}7x/3x,8x/4x,,,,,{4}5b/1b,
8-3[8:1]/4-7[8:1],4b/8b,6b/2b,
{16}3,4/2,,6,{8}5/7,{16}2,1/3,,7,{8}8/6,{4}1b/C,
{8}2/5,{16}3,4,{8}3,{16}6,5,{8}6,{16}3,4,{8}3,{16}5,4,
{8}6,{16}3,4,{8}2,{16}6,5,{8}7,{16}3,5,{8}2,{16}6,4,
{8}7,{16}3,4,{8}1,{16}6,5,{8}8,{16}2,4,{8}1,{16}4,6,
3,5,1,7,4,6,2,8,1,2,3,4,5,6,7,8,
{8}1-5[8:1],1,{4}1,{8}4/8,{16}3,4,{8}3,{16}5,4,
{8}5,{16}3,4,{8}3,{16}6,5,{8}6,{16}4,5,{8}4,{16}6,5,
{8}6,{16}2,2,{8}4,{16}7,7,{8}5,{16}1,1,{8}4,{16}8,8,
1,2,3,4,5,6,7,8,1,1,3,3,5,5,7,7,
{8}1-5[8:1],2,1/7-4[8:1],8,7/2-4[8:1],1,2/7-5[8:1],8,
7/2-6[8:1],1,2/7-3[8:1],8,7/2-5[8:1],1,2/7-4[8:1],8,
7/2-8[8:1],1,2/6-2[8:1],7,6/4-1[8:1],3,4/8-5[8:1],7,
8-3[8:1],1,8-4[8:1],7,8w4b[8:1],1,{4}8,
{8}7-5[8:1],6,7/3-1[8:1],2,3/7-3[8:1],8,7/2-5[8:1],1,
2/6-1[8:1],7,6/3-8[8:1],2,3/7-4[8:1],6,7/1>4[32:3],2,
{32}1x/5x,6,7,8,5x,6,7,8,{4}1b>4[32:3],{32}1x/5x,6,7,8,5x,6,7,8,{4}1b,
{16}8/7x,1/7,2/7,3/7,,,2x/1,2/8,2/7,2/6,,,{4}Cf/B6/B2,
{8}1/5xpp8[2:1],1,1,1x,1,1,1,{16}1/8x,7x,
{8}2/6xpp5[2:1],2,2,2,3x,3,4x,4,
4/6,{16}7,7,{8}5/2h[8:1],7,4/6,{16}7,7,{8}5/1h[8:1],6,
4/6,{16}7,7,{8}5/2h[8:1],6,7/1-6[8:1],6/2,{4}1/7,
{8}8/4xp1[2:1],8,8,8x,8,8,8,{16}8/1x,2x,
{8}7/3xp1[2:1],7,7,7,6x,6,5x<8[16:3],5,
{16}1,2,3,4,5,6,7,8,1/5,2/6,3/7,4/8,5,6,7,8,
1/5,4,3,2,1/5,8/4,7/3,6/2,{24}1,5,1,5,1,5,{4}1b,
{8}4/5xv6-8[2:1],4,4,4x,4,4,4,{16}4/8x,7x,
{8}3/6xv8<7-5[2:1],3,3,3,2x,2,1x-5[8:1],1,
1/7-4[8:1],{16}8,8,{8}7/2-5[8:1],1,2/8-4[8:1],{16}7,7,{8}1/8,2,
6/3-1[8:1],{16}4,4,{8}3-6[8:1]/7-2[8:1],4,{4}3b/7b,4/8,
{32}7b,6,{16}5,1,{32}7b,6,{16}5,1,6,{32}2b,3,{16}4,8,3,6,4,5,4,5,
{2}4>7[2:1],{4}7V13[4:1],3p6v4[2:3],
,,{2}8,
,8,
8q5v7[4:5],3,
,3,
{64},4b/5b,{4},,{16},,,{32},{4}5,
{2}7-4-6[4:3],C,
1-5-3[4:3],B7,
7v4V68[4:3],B2,
{8}Ch[8:3],{24},,,,,,B6`B2,B7`B3,B8`B4,{4}E1`E5,7b/3b,
{8}1/5,{16}7,8,{8}7,{16}2-4[8:1],8,4-8[8:1]*-7[8:1],6,{8}2,,,1/6,
{16}7,8,{8}6,1>3[8:1]/5-1[8:1],{2}5/1<6[8:1],
{8}2b/5b,{16}3,4,{8}3,2/6,{16}3,7,3,7,2,8,2,8,
,,{8}3b/5b,{16}6b/4b,6b/4b,,1b/8b,,,{8}1b-6[16:1]/8b-3[16:1],2/7,1/8,
5V71[2:1],5,{16}4,4,,3h[16:3],,,,,{4}3,
{8}1p5[2:1],1,{16}2,2,,3h[16:3],,,,,{4}3,
{8}2/6,{16}3,5,3,5,4-1[8:1],4,{2}4-7[8:1],
{16}1,7,1,7,8-4[8:1],8,8,8<6[8:1],8b,,,8b>2[16:1],,,{8}8b,
{16}5,3,5,3,6,4,6,4,7,5,7,5,8,4,8,4,
7,3,7,3,6,2,6,2,5,1,5,1,4,8,4,8,
5,1,6,2,7,3,8,4,{32}1x,2x,3x,4x,5x,6x,7x,8x,{64}A1,D2,A2,D3,A3,D4,A4,D5,A5,D6,A6,D7,A7,D8,A8,D1,
{16}4b-2[16:1],4b,,8b-6[16:1],{8}8b,{16}4b-1[16:1],4b,,8b-5[16:1],{8}8b,{4}Cf,
{16}3,4,1,8,5,6,2,2h[8:1],,3,2,5,4,7,6,8,
1,4,3,8,1,7,5,8,2,6,5,7,{32}1,2,{16}3,6,6,
{8}2>5[8:1],{16}4,4,{8}2<7[8:1],{16}8,8,{8}2-6[8:1],{16}5,5,{8}2,7,
1/5-8[8:1],{16}2,2,{8}5,{16}4,4,{8}7-3[8:1],6/8,{4}7b,
{16}7,5,8,1,4,3,7,7h[8:1],,6,7,4,5,2,3,1,
8,5,6,1,8,3,5,1,7,3,4,2,{32}8,7,{16}6,3,3,
{8}7<4[8:1],{16}5,5,{8}7>2[8:1],{16}1,1,{8}7-3[8:1],{16}3,3,{8}7,2,
5/1,3/7,{16}4/8,4/8,,6/2,{48},,,,,,{24}5/4,6/3,7/2,{4}8b/1b-5b[8:1],
{8}1bx/6bx-8[8:1],7,6/1-3b[8:1],2,1/7-5[8:1],5-8[8:1],7/2-4b[8:1],3,
2-8b[8:1],7-3[8:1],2-6b[8:1],7,2,7,7-4b[8:1],8,
{4}7bx-1[8:1],{8}7/3-5b[8:1],4,3/8-6[8:1],7,8/2-6[8:1],1-5[8:1],
2>5[8:1],1,{16}2,7,,7h[16:3],,,{8}2,{24}1-5b[8:1]/8-4b[8:1],2/7,3/6,4/5,,,{4}1bx/8bx-6[8:1],
{8}8/3-1b[8:1],2,3/7-5[8:1],6,7/2-6b[8:1],1,
2/7-3b[8:1],8-4[8:1],7V58b[4:1],8,7,2,{4}2-6b[8:1],
2bx-4[8:1],{8}2/8-6b[8:1],1-5[8:1],8-4[8:1],1-3[8:1],8,1,
8x,1x/8x,{32}1-5[32:3]/8-4[32:3],7/2,6/3,4/5,,,{16}1b/8b,,,,,{4}Cf/B3/E3/B6/E7,
{2}1>4[4:1],8<5[4:1],
{8}3,2,1p5[4:1]*q5[4:1],1,,,,,{2}4>1[4:1],
5<8[4:1],
{6}4h[12:1],3h[12:1],2h[12:1],1h[12:1],8h[12:1],{24}8,1/7,2/6,3pp8[24:43]/5qq8[24:43],
{1}4,
E
