&title=Big Brother
&artist=核P-MODEL
&first=0.11
&des=人
&lv_5=14
&inote_5=(190){4},,,,{128}2z6[2:3],
8-4[128:191],{1},{4},,,{16},,,{64},,,{1}4-8[4:3],
{4}6z2[8:3],{2},{8}1h,1h,
{4}8h[4:1],{8}4,2,{4}7h[4:1],{8}4,2,
{4}6h[4:1],{8}4,2,{4}5h[4:1],{8}4,2,
{4}2h[4:1],{8}5,7,{4}3h[4:1],{8}5,7,
{16}2,1,2,1,{8}2,{16}7,8,{8}7,{16}2,1,{8}2,8,
{4}8h[4:1],{8}2,4,{4}7h[4:1],{8}2,4,
{4}6h[4:1],{8}2,4,{4}5h[4:1],{8}2,4,
{4}4h[4:1],{8}7,5,{4}3h[4:1],{8}7,5,
{16}3,4,3,4,{8}3,{16}6,5,8h,1h,8h,1h,8h,1h,8h,1h,
{4}8bV64[4:1],{8}4-7[16:3],4,{4},{8}1,1,
{4}1/7-2[8:1],7/4-1[8:1],4,{8}7,8,
{4}6/1h[4:1],{8}8,1,{2}7-4[8:1]/2-5[8:1],
{4}3h[4:1],{8}4,3,{2}2-4[8:1]/5-7[8:1],
3b-8[8:1]/6b-4[8:1],6-1[8:1]/3-5[8:1],
{8}8,7,3,4,{2}6-4[8:1]/5-3[8:1],
{4}2h[4:1],{8}8,7,6,5,4,3,
{2}7-1[8:1]/2-8[8:1],{16}3h,7h,3h,7h,3h,7h,3h,7h,
{4}3bV17[4:1],{8}7-2[16:3],7,{4},{8}5,5,
{4}1/5-8[8:1],5/2-5[8:1],2,{8}7,7,
7h[8:1],4h[8:1],5h[8:1],2h[8:1],{4}4h[4:1],{8}2,2,
{4}1/2-5[8:1],{8}7,7,{2}8/7-4[8:1],
2b-5[8:1]/1b-4[8:1],7-4[8:1]/8-5[8:1],
{8}1,2,5,6,{2}7-5[8:1]/4-8[8:1],
{4}1h[4:1],{8}5,6,7,8,1,2,
{2}3-7[8:1]/6-4[8:1],8-2[8:1]/3-7[8:1],
{4}1b,{8}5,6,{4}7h[4:1],{8}4,5,
{4}6h[4:1],{8}3,4,{2}5-8[8:1]/6-3[8:1],
{8}1/2,2/1,{4}1/2V83[4:1],{2}6V47[4:1],
1-5[16:3],{8}6,7,{4}8h[4:1],
{8}5,6,{4}7h[4:1],{2}4-7[8:1]*-1[8:1],
{8}2/6,2/6,{4}6/2-6[8:1],{2}2/1w5[8:1],
{16}3,4,2,4,{8}3,{16}7,5,{8}6,{16}3,4,{8}2,8,
{4}8h[4:1],{8}4,2,7h[4:1],8,4,2,
6h[4:1],7,4,2,5h[4:1],6,4,2,
{4}2h[4:1],{8}5,7,3h[4:1],2,5,7,
{16}2,1,3,1,{8}2,{16}7,8,{8}6,{16}2,4,{8}3,8,
{4}8h[4:1],{8}1,3,7h[4:1],6,1,3,
6h[4:1],5,1,3,5h[4:1],4,1,3,
{4}3h[4:1],{8}7,5,2h[4:1],3,7,5,
{16}3,4,2,4,{8}3,{16}6,5,8h,1h,8h,1h,8h,1h,8h,1h,
{4}8bV61[4:1],{8}1-5[16:3],1,{4},{8}2,2,
{4}7-4[8:1],7/3v8[8:1],3,{8}6,6,
{4}5/7h[4:1],{8}5,6,{2}7-4[8:1]/4-8[8:1],
{4}2h[4:1],{8}1,2,{2}3-8[8:1]/8-4[8:1],
2b-5[8:1]/6bv1[8:1],7-4[8:1]/3v8[8:1],
{8}2,4,6,8,{2}1-6[8:1]/2-5[8:1],
{4}3h[4:1],{8}8,7,6,5,4,3,
{2}2-5[8:1]/7-4[8:1],{16}2h,6h,2h,6h,2h,6h,2h,6h,
{4}2bV41[4:1],{8}1-5[8:1],1,{4},{8}7,7,
{4}4-8[8:1],4/6-4[8:1],6,{8}3,3,
3h[8:1],8h[8:1],5h[8:1],6h[8:1],{4}2h[4:1],{8}1,2,
{4}3/7-3[8:1],{8}2,1,{2}8/4-8[8:1],
1b-3[8:1]/7b-3[8:1],6-8[8:1]/4-8[8:1],
{8}1,3,5,7,{2}8v6[8:1]/1v3[8:1],
{4}2h[4:1],{8}3,4,5,6,7,8,
1-3[8:1],5-7[8:1],{4}1s5[4:1],{2},{4}1b,
{8}4,3,2h[4:1],8,5,4,
3h[4:1],1,6,5,{2}3/4-8[8:1]*v1[8:1],
{8}2/6,6/2,{4}2/6V84[4:1],{2}3V15[4:1],
4-8[16:3],{8}3,2,1h[4:1],7,
4,3,2h[4:1],5,{2}4v1[8:1]*v7[8:1],
{8}6/2,6/2,{4}6/2-6[8:1],{2}8v3[8:1]*v5[8:1],
{4}1h[8:1],2h[8:1],3h[8:1],4h[8:1],
1/5h[8:1],6h[8:1],3/7h[8:1],8h[8:1],
1h[8:1]/5-1[8:3],2h[8:1],3h[8:1],4h[8:1],
1/5h[8:1],2/6h[8:1],{16}3h,7h,3h,7h,3h,7h,3h,7h,
{8}3h[8:1],4,2h[8:1],6,3h[8:1],8,2h[8:1],6,
3h[8:1],4,2h[8:1],6,{16}1h,8h,1h,8h,1h,8h,1h,8h,
{8}1h[8:1],6,2h[8:1],4,1h[8:1],6,2h[8:1],8,
1h[8:1],6,2h[8:1],4,{16}3h,7h,3h,7h,3h,7h,3h,7h,
{8}3h[8:1],5,1h[8:1],4,7h[8:1],5,1h[8:1],4,
3h[8:1],5,1h[8:1],4,{16}2h,6h,2h,6h,2h,6h,2h,6h,
{8}2h[8:1],4,8h[8:1],5,6h[8:1],4,8h[8:1],5,
2h[8:1],4,8h[8:1],5,{16}2h,6h,2h,6h,2h,6h,2h,6h,
{4}2z6[8:13],5,3,1,
3,5,3,1,
6z2[8:13],5,7,1,
7,5,7,1,
3q6[8:13],4,,4,
,4,,4,
3qq6[4:3],4,,4,
4h[8:1],4h[8:1],{16}4,5,4,5,{8}1h,1h,
{16}3b,7,{8}3,{16}6,5,{8}6,{16}3,4,{8}3,{16}8,2,{8}8,
{16}1,7,{8}1,{16}6,5,{8}6,{16}3,4,{8}3,{16}8,2,{8}8,
{16}3b,4,{8}3,1,1,{16}7,8,{8}7,5,5,
{16}2,4,2,4,3,5,3,5,4-1[8:1],6,4,6,{4}4,
{16}7b,3,7,3,{8}5,5,{16}2,6,2,6,{8}8,8,
{16}6,5,6,5,7,4,7,4,8,3,8,3,1,2,1,2,
4b,3,4,3,{8}7,7,{16}5,6,5,6,{8}2,2,
{16}1,6,1,6,3,4,3,4,2,7,2,7,5,6,5,6,
1b,8,2,7,1,8,2,7,{8}1,2/7,3/6,5/4,
{16}3b,4,2,5,3,4,2,5,{8}3,2/5,3/6,4/7,
{16}5b,6,4,7,5,6,4,7,{8}5,4/7,3/8,2/1,
{16}3b,6,5,6,2,5,4,5,1-5[8:1],4,3,4,{4}1,
{16}8b,4,7,5,{8}6h[16:1],1,{16}1,5,2,4,{8}3h[16:1],8,
{16}4b,6,5,6,3,5,4,5,{8}1,2/8,3/7,4/6,
{16}5b,3,4,3,6,4,5,4,{8}8,1/7,2/6,3/5,
{16}4b,6,5,6,2,4,3,4,1,5,1,5,{32}1,2,3,4,5,6,7,8,
{1}1s5[1:4],
{4},,,,,,,,,,,7-3[8:1],
{1}7b,
E
