&title=MILABO
&artist=ずっと真夜中でいいのに。
&first=1.845
&des=Kurage
&lv_5=13
&inote_5=(127)
{4}6h[4:1],,{16}2h[16:3],,,4h[16:3],,,3h[8:3],,
{8},6,6,,45,,26,,
{4}4h[4:1],,{16}7h[16:3],,,3h[16:3],,,5h[8:3],,
{8},1,1,,37,,45,,
{4}2-4[32:3],E5/B5,7-5[32:3],E5/B4,
1-3[32:3],B3/E4,8-6[32:3],B6/E6,
3-1[32:3],E5/B5,6-8[32:3],{8}E5/B4,3xh[8:5],
{4}6,6,6,C,
{8}3/4-6[32:3],,2V48[32:7],,{16}5,,,7h[16:3],,,1<6[8:1],,
{8},5,5-8[8:1],4,4,3,{16}7,5,,,
{8}8-6[32:3]/4,,3V51[32:7],,{16}6,,,8h[16:3],,,2-6[8:1],,
{8},7,7-1[32:3],5,5,4,{16}7,3,,,
{8}6/5-3[32:3],,7V51[32:7],,{16}4,,,2h[16:3],,,8>3[8:1],,
{8},4,4-1[8:1],5,5,6,{16}2,4,,,
{8}1-3[32:3]/5,,6V48[32:7],,{16}3,,,1h[16:3],,,7b,,
{4}3h[4:3],,,4-6[32:3],
{8}2-6[8:1],,8,,5,5,6,5/7h[4:1],
,3,3pp4[4:1]*V14[4:1],,,,,,
4/5-7[32:3],,2-4[32:3],,1,1,4,7/3pp6[8:3],
,8,8h[4:1],,,,5-3[32:3],,
7-3[32:3],,1,,4,4,3,2h[4:1]/4,
,6,6q5[4:1]*qq4[4:1],,,,,,
4-2[32:3]/5,,7-5[32:3],,8,8,5,2/6V48[32:7],
,1,1>4[8:1]*<6[8:1],,,,7b/3b,,
6-4[32:3]/4,3,2,{16}1,1,{8}5,3,37,6,
4-6[32:3],8,8,{16}1,1,{8}5,7,37,4,
6<1[8:1]/5,{16},3,{8}3<6[8:1],,8p4[48:7]*q4[48:7],8,,,
3V52[16:3],,5,7-3[8:1],,1,1,,
3-5[32:3]/5,6,7,{16}8,8,{8}4,6,62,3,
5-3[32:3],1,1,{16}8,8,{8}4,2,62,5,
3-6[8:1]/4,3,7,{16}8,8>4[16:3],{8},5,5,,
1,28,5,46,3-6[8:1]/7-2[8:1],,,,
4x>5[8:5]/5x,,E3,,E1,,E7,,
4q5[16:5],,C,,8h[4:1],,C,,
7<2[4:2],,E5,,C,,E1,,
1h[8:1]/8h[8:1],,2h[8:1]/7h[8:1],,3x-8[8:1]/6x-1[8:1],,3x/6x,,
2qq7[8:5],,E4,,E5,,E6,,
6<3[4:2],,E1,,C,,E5,,
4>1[8:1]/5<8[8:1],,4bpp5[16:5]/5bqq4[16:5],,,,,,
2-6[8:1],5<8[8:1],2,5,4qq4[32:7],{16}8,8,,,6,,
{8}6h[4:1],5,8h[4:1],5,6h[4:1],5,5,47,
8-5[8:1],3>8[8:1],8,3,4pp4[32:7],{16}8,8,,,2,,
{8}2h[4:1],4,6h[4:1],4,2h[4:1],4,{16}5,5,3,,
{8}7-3[8:1],4>1[8:1],7,4,5pp5[32:7],{16}1,1,,,3,,
{8}3h[4:1],4,1h[4:1],4,3h[4:1],4,4,52,
1-4[8:1],6<1[8:1],1,6,5qq3[48:5],{16}1,1,,,7bz3[32:15],,
{4},,,{64}6,5,,,,,,,,,,,,,,,
{8}24,18,24,56,{16}8>3[8:1],17,,4qq5[4:1],,,B2/B3,,
{8},6,67,58,{16}1<3[32:7]/4,41,,6,,,C,,
{8}2-6[8:1],{16},1,2,8<5[8:1],,4h[8:1],,,3,,34,,1V35[32:7]/5,,
{8},5-2[8:1],6,8-4[8:1],7,{16}68,6h[16:3],,,5,,
{8}75,81,75,43,{16}2-6[8:1],18,,5pp4[4:1],,,B8/E1,,
{8},3,23,18,6-1[8:1]/7-4[8:1],,6b/7b,,
5>7[32:7]/3,,8,,3>8[8:1],8<5[8:1],{16}6,6,,4w8[8:1],
{8},4x,,2x/6x,{16}1-5[8:1],7,3,5,1,,7,,
{4}7b/3b,{24}81,7,6,{16}3,5,1h[16:3],,,7,{24}2,3,4,{16}6,5,
6,,75,,{24}4,3,2,8,7,6,{16}5-8[8:1]/4-1[8:1],,,54,,,,,
72,,,,6,5,7,4,8,{32}2,1,2,,{16}8,,,73,,
4,5,5,2,6,4,7,3,8,2,1,2,8,4,4,,
2b/6b,,{24}3,4,5,{16}7,8,6,8,5,5,4,4,{24}7,6,5,{16}3,4,
3h[8:1],,6,5,7,4,8,2,6h[8:1],,5,7,4,8,3,1,
2,,{24}5,6,7,1,2,3,8,7,6,45,3,2,8,7,6,45,3,2,8,7,6,
{16}15,,
{32}E2,E3,E4,E5,E6,E7,E8,E1,E2,E3,E4,E5,E6,E7,E8,E1,E2,E3,E4,E5,E6,E7,E8,E1,E2,,,,
{8}3x-5[32:3]/4xh[4:4],,,,3-5[32:3],,,,
E3,C,E4,B5,2pp4[8:1],,,,
{8}6-4[32:3]/5h[4:4],,,,6-4[32:3],,,,
E7,C,E6,B4,7qq5[8:1],,,,
3-5[32:3]/4h[4:1],,,,6-4[32:3]/5h[4:1],,,,
E3,E4,E7,E6,2pp4[8:1]/7qq5[8:1],,,,
{16}3,4,2,,6,5,7,,18,,27,2h[8:1]/7h[8:1],,,4b/5b,,
{4},C,{16}1-5[8:1],7,3,5,1,,,,
{8}75,81,75,43,{16}1<6[8:1],82,,5pp4[4:1],,,B7/B6,,
{8},3,32,41,{16}8>6[32:7]/5,58,,3,,,C,,
{8}7-3[8:1],{16},8,7,1>4[8:1],,5h[8:1],,,6,,65,,8V64[32:7]/4,,
{8},4-7[8:1],3,1-5[8:1],2,{16}31,3h[16:3],,,4,,
{8}24,18,24,56,{16}7-3[8:1],81,,4qq5[4:1],,,B1/E1,,
{8},6,76,81,3-8[8:1]/2-5[8:1],,3b/2b,,
4<2[32:7]/6,,1,,6<1[8:1],1>4[8:1],{16}3,3,,5-2[8:1]*-8[8:1],
{8},5x,,7x/3x,{16}8<5[8:1]/1>4[8:1],,27,,1b/8b,,,,
{8}2v5[8:1]/8,4/6v1[8:1],2,6,{16}4,4x>1[8:1]/8x<5[8:1],,37,,,E3/E7,,
{8},8-4[8:1]/7,43,82,{16}1>4[8:1]*<6[8:1],15,,28,,,,,
3x/7x-3[8:1],,,,1>4[8:1],1,,5v2[48:5],,,8,,8,,37,,
4/6b-4[32:3],,7,,2b-6[8:1]/6,,1,,8b<5[8:1]*>3[8:1]/2,,7,,8b,,,,
2v5[8:1]/4,,6v1[8:1]/8,,2,,6,,4,4xqq3[32:5]/8xqq7[32:5],,37,,,B3/B7,,
,,12,,45,,78,,4w8[8:1]/5w1[8:1],,,,4b/5b,,,,
{8}5x>7[32:7]/3x,,8,,3>8[8:1],8<5[8:1],{16}6,6,,4w8[8:1],
{8},4x,,2x/6x,{16}3-8[8:1]/7-4[8:1],,15,,3b/7b`E4/E8`Cf,,,,
1x,
