&title=girls.exe
&artist=rintaro soma
&first=0
&des=PanMSK
&des_5=PanMSK
&clock_count=4
&lv_5=14+
&inote_5=(188){1},{4},{16}Ch[16:3],
{8},{48}E7,,B6,,B3,,{16}E3,{8},,,{1}1x>8[2:7],
,E1,
B3,
5xs1[2:7]*V37[4:9],
,E3,
B5,
{4}3x,3h[1:1],{2}4,
5-7>1[4:3],4,
{4}5,5h[1:1],{2}8,
7-4[2:1],3x,
{4}2V46[2:1],8,6V82[2:1],4x,
2-4[4:1],8x,6h[4:1],5x,
{8}3,4x/3x,3,6x/3x,3,8x/3x,3,5x/3x,
{16}3bx,4,,2bx,1,2,7bx,8,,6bx,5,6,{4}2bxh[8:13],
{8},,,,,,,,,,,4z8[4:1],
{2},{8}3,
3,{4}6h[4:1],{16}4,5,,6,{8}5,4,
7-5[8:1],1,7,4,3-1[8:1],5,3,8,
{4}7h[8:1],1/6x,{16}5,4,,3,{8}4,5,
2>5[8:1],8,2,6,7-3[8:1],8,{4}1w5[8:1],
,{16}A3,A2,A1,A8,{8}A7,{16}6x,6,,4,{8}5h[4:1],
2,2h[8:3],{16}A4,A5,A6,A7,{8}A8,{16}2x,2,,8,{8}1h[4:1],
,{16}7,8,{8}7,{16}2,1,{8}2,{16}7,8,6,1,5,2,
{4}4bpp4[2:1],{2},{4}2x-4[8:1],
{8},{16}A1,A8,A7,A6,{8}A5,{16}3,3,{8}4,2,7,
8x/7h[8:3],{16}A1,A2,A3,A4,{8}A5,{16}7,7,{8}8,6,3,
4x/3h[8:3],{16}A5,A6,A7,A8,{8}A1,3x-7[8:1],3x,7,6,
5,{16}1,2,3,4,1,8,7,6,{8}1h[4:1]/5h[4:1],{4},E7/B6/E3/Cf/B2,
4x/8x,{12}3/7,3/7,3/7,3x/7x,{6},{8}4V63[4:1],
7,4,1,8-4[8:1],2,{4}8,
{16}B3/B2/E3f,{8},{16}5,{4}5qq5[4:1],5-7[8:1],1,
{16}2,8,3,7,{8}4,5/6,{16}4,4,{8},{16}6,6h[16:3],{8},5x-2[8:1],
6,7,8,5-2[8:1],6,7,8,
5>2[8:1],6,7-3[8:1],8,{4}1q5[8:1]*v6[8:1],1,
7x,{8}1/2,1h[8:1]/2h[8:1],,5/3,{4}5h[8:1]/3h[8:1],
{8}4/8,4/8h[8:3],,7,{4}1-5[8:1],3/1,
{8}2-4[8:1],5,2,7-3[8:1],5,7,1v6[8:1],4,
1,8,7,7h[4:1],5,3,{4}1/8,
6/7h[4:1],{8}5-1[8:1],4,{4}3x/5x-2[8:1],5x,
{16}8,7,6,5,3,2,1,8,4,3,2,1,8,7,6,5,
{8}4x-7[8:1],3,2,1,4-7[8:1],3,2,1,
4<7[8:1],3,2,1,8-4[8:1],8,{4}8/1,
{8}3h[4:1],6,6,4h[4:1],7,7,5h[4:1],8,
8,7-4[8:1],4V61[4:1],7,1,3,{4}5x,
{8}8/4,7,6,5/1,2,3,5/4h[4:1],5,
{16}5,6,7,8,1s5[4:1],2,3,4,{2}1bh[64:1],
{8}3x,3x,5,5,{16}1,4,3,6,5,8,2,5,
3,7,3,7,{32}E4,E5,E6,E7,E8,E1,E2,E3,{2}Cfh[2:1],
{8}2-5[8:1],8,2,6-1[8:1],4>2-5b[4:1],6,{4}4,
{8}7-4[8:1],7,1<6[8:1],1,5-8[8:1],5,4,3,
2<7[8:1],7,2,6-1[8:1],5>3-8b[4:1],6,{4}5,
{8}7qq5[16:3],7,8,1,{4}1w5b[8:1],1,
{8}3xh[8:1],4,4/5,{16}6x,5,{8}7-3[8:1],8,{4}7/1h[4:1],
{16}4,5,6,7,1,2,3,4,{8}5/8-4[8:1],8,{4}3/8x,
{8}1,{16}6,5,{8}6,{16}3,4,3<6[8:1],4,3,4,{4}3,
{8}8,{16}6,5,,3,{8}4,{4}5-1[8:1]/4-8[8:1],4/5,
{8}7<5[8:1],1,7,3-8[8:1],4<6-3b[4:1],3,{4}4,
{8}1-5[8:1],1,8>3[8:1],8,4-8[8:1],4,5,6,
7-3[8:1],3-5[8:1],7,2,{4}2h[4:1],{16}6,7,8,1,
5,6,7,8,{8}1/5,1/5,{16}3,4,,1,{8}8,{16}2x,3x,
4bx/Cf,{8},{16}7bx/Cf,{8},5b/1b,{4}1x,{16}6bx/Cf,{8},{16}2bx/Cf,
{8},8b/4b,{4}8b/4h[4:1],{16}5,4,3,2,1,8,7x,6x,
5bx/Cf,{8},{16}2bx/Cf,{8},8b/4b,{4}8xh[4:1],{16}1,8,1,8,
1,7,2,6,3,5,2,8,3,7,4,6,{32}5x,6x,7x,8x,1x,2x,3x,4x,
(141){1}5-3>1-7-5>3-1[2:3],
,(211.5)8xh[4:9]/Ch[4:1],
,Ch[4:1],
,6xh[4:9]/Ch[4:1],
,Ch[4:1],
,4h[2:1]/3h[2:3],
4V28[4:3],
{4}5,6,7<4[4:1],4>1[4:1],
1<6[4:1],6>2[4:1],{2}2<6[4:1],
{32}B1,C,{16}B5,{8},,,,,,,,,,,,,,,{1}8v3>2-8<5[1:2],
,4>5[4:3],
{8},,,8,{4}8-4[8:1],8b,
5/2-6[8:1],7-4[8:1],8w4[8:1],8,
{8}2,1,{4}8h[4:1],1w5[8:1],1,
{8}8x/3x,2,1/6,5h[8:3],{16}E1,B8,B7,E7,{4},{8}6x/1x,
7,8/3,4h[8:3],{16}E1,B1,B2,E3,{4},8x/2-6[8:1],
7-4[8:1],1w5[8:1],1,
{8}7,8,{4}1h[4:1],{2}8w4[8:1],
{8}2/6,1,8/7,6,5/4,5-8[8:1]/4-1[8:1],{32},,,,,E5,Cf,E1,
{2},7h[2:1]/3h[4:1],
{16}E4,B4,B5,E6,E2,B1,B8,E8,E4,E5,E6,E7,E8,E1,E2,E3,
6x,5,4,3,2,1,8,7,4x/6x,3,2,1,8,7,6,5,
{8}1x,1h[4:1],3,3h[4:1],5,5h[4:1],7,7,
{16}6x,5,4,3,2,1,{8}8,8xh[8:1],{16}4,5,6,7,8,1,
{1}6b/2b-6[4:5],
{2},{4}8w4b[8:1],Cf,
{8}6x/1x,2,3/8v5<6-2[8:3],4,{4}8,1h[4:1],
{16}B3,B4,B5,E6,{8}8x,1,{4}2-4[8:1]/6-1[8:1],6/2,
{8}8x,7,6/1v4>3-7[8:3],5,{4}1,8h[4:1],
{16}B6,B5,B4,E4,{8}1x,8,{4}3/7-4[8:1],1/7,
{8}1-5[8:1],1,7-4[8:1],7,3,3xh[8:3],{16}2,1,8,7,
6,5,3,2,1,8,7,6,{2}8-4[8:1]/5-2[8:1],
{16}1bx,4,3,4,{8}3,3,3/4,3,3/6h[4:1],3,
{24}3,4,5,6,{12},{8}6,{16}6,5,{8}6,6,6/1h[4:1],6,
{24}6,7,8,1,{12},{8}1,1,{24}1,2,3,4,{12},{8}4,4,
{24}5x,6,7,8,{12},{24}1-7<6b[8:1],2,3,4x,{12},{4}1xV35[8:1]*-4<5[8:1],E2f,
{8}8x,7,6-4[8:1],1-5[8:1],6,1,{4}8,
{8}3x/8x,7,6/2-5[8:1],5-3[8:1],{4}2,8h[4:1],
1b-5[8:1],1/7b-3[8:1]`Cf,7/4b-8[8:1]`Cf,4/5b`Cf,
{8}6,6,8,8,{16}1,2,3,4,5,6,7,8,
1b,1b,1b,1b,1b,1b,1b,1b,1b,1b,1b,1b,1b,1b,1b,1b,
{1}1bw5[2:1],
{8}5/2,7,{4}8/7h[4:1],{24}8,1,2,3h[8:1],{12},{24}7,6,5,4h[8:1],{12},{8}2,
2,6/1,{16}5,4,,4,{8}5,{16}6,6,{8}6,
{2}7/5x>2[8:1],{24}8,7,6,5h[8:1],{12},{24}8,1,2,3h[8:1],{12},{16}4,
3,4,3,8,1,8,1,6,5,6,5,{8}7,3,
{2}Cf/E7/B6/E3/B2,{24}2,3,4,5h[8:1],{12},{24}1,8,7,6h[8:1],{12},{8}4,
4,6/3,{16}2,5,,5,{8}2,{16}3,3,{8}3,
4/2,{16}6,5,{8}6,{16}1,8,{8}1,{16}3,4,3,4,{8}3,
5/4b-8[8:1],4,4b/7-3[8:1],7,7b/1,1,1b/5,6x/2x,
{4}7h[#0.5673828]/3h[#0.5673828],,{32},2x/6x,1x/5x,4x<4q4[32:85]/8x>8q8[32:85],{1},,,{4},{8},{16}6,
6,1w5[8:1],8,3,5,
E
